<?xml version="1.0" standalone="no"?>
<!DOCTYPE svg PUBLIC "-//W3C//DTD SVG 1.1//EN" "http://www.w3.org/Graphics/SVG/1.1/DTD/svg11.dtd" >
<svg xmlns="http://www.w3.org/2000/svg">
<metadata>Generated by IcoMoon</metadata>
<defs>
<font id="icomoon" horiz-adv-x="1024">
<font-face units-per-em="1024" ascent="960" descent="-64" />
<missing-glyph horiz-adv-x="1024" />
<glyph unicode="&#x20;" horiz-adv-x="512" d="" />
<glyph unicode="&#xe900;" d="M106.126 430.013h7.452v-7.452h-7.452v7.452z" />
<glyph unicode="&#xe901;" d="M115.142 430.013h7.452v-7.452h-7.452v7.452z" />
<glyph unicode="&#xe902;" d="M106.126 420.951h7.452v-7.452h-7.452v7.452z" />
<glyph unicode="&#xe903;" d="M115.142 420.951h7.452v-7.452h-7.452v7.452z" />
<glyph unicode="&#xe904;" d="M146.010 416.351v13.893l-10.902 11.178v16.423l-7.59-0.046-0.138-8.51-6.394 6.486c-3.542 3.588-6.486 6.486-6.578 6.486s-7.268-7.222-15.917-16.009l-15.733-16.009v-20.241l-0.368 0.092c-2.806 0.598-11.638 1.748-18.171 2.392-8.372 0.828-11.776 0.966-23.323 0.966-9.522 0-10.81 0-14.491-0.276-8.142-0.598-16.515-1.518-23.369-2.622-1.794-0.276-3.266-0.506-3.266-0.46-0.046 0.046 61.642 63.298 61.826 63.344 0.046 0 3.634-3.634 8.004-8.142 4.324-4.508 7.958-8.188 8.004-8.188s6.532 6.532 14.353 14.537c7.866 8.004 16.101 16.377 18.401 18.677l4.14 4.186 14.905-15.181c8.188-8.372 14.951-15.181 15.043-15.181s2.208 2.070 4.692 4.646l4.6 4.646 2.3-2.3c1.288-1.242 15.779-15.503 32.201-31.649s29.855-29.395 29.855-29.395c-0.046-0.138-6.486-1.518-10.856-2.346-10.718-2.024-21.253-3.404-33.213-4.324-7.038-0.552-11.638-0.736-19.965-0.828l-7.958-0.092-0.092 13.847z" />
<glyph unicode="&#xe905;" d="M234.057 410.601h5.106v30.683c0 11.040 8.050 18.953 18.401 18.953 10.718 0 16.883-7.222 16.883-18.125v-31.511h5.106v32.431c0 12.696-7.82 21.851-21.253 21.851-9.66 0-15.595-4.922-19.137-11.132v32.753h-5.106v-75.903z" />
<glyph unicode="&#xe906;" d="M298.552 486.504h5.106v-75.903h-5.106v75.903z" />
<glyph unicode="&#xe907;" d="M340.045 414.143c-8.096 0-15.411 4.462-15.411 12.144v0.23c0 7.36 6.21 12.374 17.481 12.374 7.59 0 13.525-1.242 17.987-2.392v-6.026c0.046-9.66-9.246-16.331-20.057-16.331zM339.723 409.358c10.12 0 16.653 4.968 20.287 10.074v-8.832h4.968v33.075c0 6.578-1.84 11.454-5.382 14.997-3.864 3.864-9.568 5.842-16.745 5.842-7.268 0-12.973-1.886-18.815-4.6l1.886-4.462c4.876 2.484 10.166 4.278 16.653 4.278 10.902 0 17.481-5.52 17.481-16.239v-2.3c-5.106 1.38-10.166 2.3-17.573 2.3-13.755 0-23.185-6.21-23.185-17.297v-0.184c-0.046-11.040 10.58-16.653 20.425-16.653z" />
<glyph unicode="&#xe908;" d="M406.242 414.235c-11.132 0-20.839 8.924-20.839 22.909v0.184c0 14.261 9.292 22.679 20.839 22.679 11.040 0 21.621-9.154 21.621-22.771v-0.23c0-13.479-10.626-22.771-21.621-22.771zM405.69 409.358c10.488 0 17.251 6.164 21.851 13.111v-11.868h5.106v75.903h-5.106v-34.317c-4.37 6.67-11.224 12.696-21.851 12.696-12.788 0-25.807-10.534-25.807-27.785v-0.23c0-17.205 13.019-27.509 25.807-27.509z" />
<glyph unicode="&#xe909;" d="M468.436 414.143c-8.096 0-15.411 4.462-15.411 12.144v0.23c0 7.36 6.21 12.374 17.481 12.374 7.59 0 13.525-1.242 17.987-2.392v-6.026c0-9.66-9.292-16.331-20.057-16.331zM468.068 409.358c10.12 0 16.653 4.968 20.287 10.074v-8.832h4.968v33.075c0 6.578-1.84 11.454-5.382 14.997-3.864 3.864-9.568 5.842-16.745 5.842-7.268 0-12.973-1.886-18.815-4.6l1.886-4.462c4.876 2.484 10.166 4.278 16.653 4.278 10.902 0 17.481-5.52 17.481-16.239v-2.3c-5.106 1.38-10.166 2.3-17.573 2.3-13.755 0-23.185-6.21-23.185-17.297v-0.184c0-11.040 10.58-16.653 20.425-16.653z" />
<glyph unicode="&#xe90a;" d="M511.678 410.601h5.106v30.545c0 10.718 7.498 19.045 16.975 19.045 9.43 0 15.457-6.762 15.457-17.803v-31.833h5.106v30.913c0 11.868 7.82 18.723 16.745 18.723 9.752 0 15.687-6.67 15.687-18.125v-31.511h5.106v32.155c0 13.295-7.82 22.127-20.379 22.127-9.982 0-15.687-5.52-19.137-11.454-2.898 6.164-8.648 11.454-17.895 11.454-9.476 0-14.261-5.198-17.711-10.718v9.522h-5.106v-53.040z" />
<glyph unicode="&#xe90b;" d="M631.283 410.417c11.132 0 17.343 4.278 22.771 10.166l-9.246 9.338c-3.864-3.634-7.498-5.934-12.788-5.934-8.648 0-14.169 6.854-14.169 15.411v0.184c0 8.234 5.612 15.181 13.525 15.181 5.612 0 9.154-2.392 12.696-6.164l9.66 10.396c-5.198 5.796-11.73 9.338-22.265 9.338-17.067 0-29.211-13.111-29.211-29.027v-0.23c0-15.779 12.282-28.659 29.027-28.659z" />
<glyph unicode="&#xe90c;" d="M664.266 411.659h15.825v31.097c0 7.498 3.864 11.316 9.89 11.316s9.568-3.864 9.568-11.316v-31.097h15.825v36.065c0 12.788-6.992 20.701-18.953 20.701-8.004 0-12.696-4.278-16.331-8.924v28.061h-15.825v-75.903z" />
<glyph unicode="&#xe90d;" d="M749.645 421.549c-5.106 0-8.648 2.484-8.648 6.762v0.184c0 5.014 4.186 7.682 10.948 7.682 3.864 0 7.36-0.828 10.074-2.070v-2.806c0-5.75-4.968-9.752-12.374-9.752zM744.861 410.601c7.682 0 13.019 2.806 16.883 7.084v-6.026h15.273v32.339c0 7.498-1.886 13.617-6.026 17.757-3.956 3.956-10.166 6.256-18.815 6.256-9.476 0-15.457-1.794-21.621-4.462l3.956-12.052c5.106 1.84 9.338 2.99 15.411 2.99 7.912 0 11.96-3.634 11.96-10.166v-0.92c-3.956 1.334-8.050 2.254-13.617 2.254-13.249 0-22.495-5.612-22.495-17.757v-0.23c-0.046-11.040 8.602-17.067 19.091-17.067z" />
<glyph unicode="&#xe90e;" d="M808.804 410.693c5.336 0 9.154 1.242 12.466 3.22v12.696c-2.3-1.242-4.922-1.978-7.82-1.978-3.496 0-5.106 1.794-5.106 5.428v23.829h13.111v13.479h-13.111v14.261h-15.825v-14.261h-6.624v-13.525h6.624v-26.405c0.046-12.881 6.624-16.745 16.285-16.745z" />
<glyph unicode="&#xe90f;" d="M851.539 410.601c8.004 0 12.696 4.278 16.331 8.924v-7.866h15.825v55.708h-15.825v-31.097c0-7.498-3.864-11.316-9.89-11.316s-9.568 3.864-9.568 11.316v31.097h-15.779v-36.065c0-12.788 6.946-20.701 18.907-20.701z" />
<glyph unicode="&#xe910;" d="M899.289 420.491h6.854v-8.832h-6.854v8.832z" />
<glyph unicode="&#xe911;" d="M941.565 410.601c10.166 0 18.309 6.026 18.309 15.503v0.23c0 9.338-8.924 12.466-17.481 14.859-7.59 2.208-14.767 4.324-14.767 10.304v0.184c0 5.336 4.784 9.246 12.052 9.246 5.612 0 11.454-2.070 16.331-5.29l2.714 4.278c-5.336 3.496-12.466 5.796-18.815 5.796-10.304 0-17.481-6.118-17.481-14.629v-0.23c0-9.476 9.568-12.052 18.171-14.583 7.406-2.070 14.031-4.37 14.031-10.58v-0.184c0-6.164-5.612-10.12-12.788-10.12-6.762 0-13.203 2.484-19.045 6.992l-3.036-4.048c5.658-4.6 14.077-7.728 21.805-7.728z" />
<glyph unicode="&#xe912;" d="M975.974 411.659h5.106v12.881l12.881 12.973 21.023-25.853h6.44l-23.921 29.533 23.185 23.507h-6.762l-32.845-34.041v56.904h-5.106z" />
<glyph unicode="&#xe913;" d="M264.050 411.613h14.813v-14.813h-14.813v14.813z" />
<glyph unicode="&#xe914;" d="M281.976 411.613h14.813v-14.813h-14.813v14.813z" />
<glyph unicode="&#xe915;" d="M264.050 393.687h14.813v-14.813h-14.813v14.813z" />
<glyph unicode="&#xe916;" d="M281.976 393.687h14.813v-14.813h-14.813v14.813z" />
<glyph unicode="&#xe917;" d="M343.158 384.456v27.586l-21.682 22.112v32.631l-15.027-0.107-0.215-16.959-12.666 12.881c-6.977 7.084-12.881 12.881-13.095 12.881s-14.383-14.276-31.557-31.772l-31.235-31.772v-40.144l-0.751 0.107c-5.582 1.181-23.078 3.435-36.065 4.723-16.637 1.61-23.292 1.932-46.262 1.932-18.891 0-21.468 0-28.766-0.537-16.101-1.181-32.738-3.005-46.37-5.26-3.542-0.537-6.44-0.966-6.548-0.966-0.107 0.107 122.257 125.478 122.579 125.585 0.107 0 7.192-7.192 15.886-16.208 8.587-8.909 15.779-16.208 15.886-16.208s12.881 12.988 28.444 28.766c15.564 15.886 31.987 32.523 36.495 37.031l8.158 8.265 29.625-30.162c16.315-16.53 29.732-30.162 29.84-30.162s4.294 4.186 9.338 9.231l9.124 9.231 4.616-4.508c2.576-2.469 31.235-30.699 63.866-62.792 32.631-31.987 59.25-58.284 59.25-58.392-0.107-0.215-12.773-3.005-21.575-4.616-21.253-4.079-42.184-6.762-65.905-8.587-13.954-1.073-23.078-1.503-39.608-1.61l-15.779-0.107v27.908z" />
<glyph unicode="&#xe918;" d="M498.368 453.796h5.796v34.563c0 12.451 9.016 21.36 20.716 21.36 12.129 0 18.999-8.158 18.999-20.394v-35.529h5.796v36.602c0 14.276-8.802 24.688-23.936 24.688-10.948 0-17.603-5.582-21.575-12.558v36.924h-5.796v-85.655z" />
<glyph unicode="&#xe919;" d="M571.143 539.452h5.796v-85.655h-5.796v85.655z" />
<glyph unicode="&#xe91a;" d="M617.942 457.768c-9.124 0-17.389 5.045-17.389 13.739v0.215c0 8.265 6.977 13.954 19.75 13.954 8.587 0 15.242-1.395 20.287-2.683v-6.762c0-10.948-10.519-18.462-22.648-18.462zM617.513 452.401c11.378 0 18.784 5.582 22.863 11.378v-9.982h5.582v37.246c0 7.406-2.039 12.881-6.118 16.852-4.294 4.294-10.841 6.548-18.891 6.548-8.265 0-14.598-2.147-21.253-5.152l2.147-5.045c5.474 2.791 11.485 4.83 18.784 4.83 12.344 0 19.75-6.226 19.75-18.355v-2.576c-5.796 1.503-11.485 2.576-19.857 2.576-15.457 0-26.19-6.977-26.19-19.535v-0.215c0.107-12.236 12.129-18.569 23.185-18.569z" />
<glyph unicode="&#xe91b;" d="M692.542 457.875c-12.558 0-23.507 10.090-23.507 25.868v0.215c0 16.101 10.412 25.546 23.507 25.546 12.451 0 24.366-10.304 24.366-25.654v-0.215c0-15.349-11.914-25.761-24.366-25.761zM692.005 452.401c11.807 0 19.428 6.977 24.688 14.813v-13.417h5.796v85.655h-5.796v-38.749c-4.938 7.514-12.666 14.383-24.688 14.383-14.383 0-29.088-11.914-29.088-31.343v-0.322c-0.107-19.428 14.598-31.021 29.088-31.021z" />
<glyph unicode="&#xe91c;" d="M762.74 457.768c-9.124 0-17.389 5.045-17.389 13.739v0.215c0 8.265 6.977 13.954 19.75 13.954 8.587 0 15.242-1.395 20.287-2.683v-6.762c0-10.948-10.519-18.462-22.648-18.462zM762.311 452.401c11.378 0 18.784 5.582 22.863 11.378v-9.982h5.582v37.246c0 7.406-2.039 12.881-6.118 16.852-4.294 4.294-10.841 6.548-18.891 6.548-8.265 0-14.598-2.147-21.253-5.152l2.147-5.045c5.474 2.791 11.485 4.83 18.784 4.83 12.344 0 19.75-6.226 19.75-18.355v-2.576c-5.796 1.503-11.485 2.576-19.857 2.576-15.457 0-26.19-6.977-26.19-19.535v-0.215c0.107-12.236 12.129-18.569 23.185-18.569z" />
<glyph unicode="&#xe91d;" d="M811.472 453.796h5.796v34.455c0 12.129 8.48 21.468 19.106 21.468s17.496-7.621 17.496-20.072v-35.851h5.796v34.885c0 13.417 8.802 21.145 18.891 21.145 11.056 0 17.711-7.514 17.711-20.394v-35.529h5.796v36.173c0 15.027-8.802 25.010-22.97 25.010-11.27 0-17.711-6.226-21.575-12.881-3.327 6.977-9.768 12.881-20.179 12.881-10.734 0-16.101-5.904-19.965-12.129v10.734h-5.904v-59.894z" />
<glyph unicode="&#xe91e;" d="M531.106 356.978c12.558 0 19.535 4.83 25.654 11.485l-10.412 10.519c-4.294-4.079-8.48-6.655-14.383-6.655-9.768 0-15.993 7.728-15.993 17.389v0.215c0 9.231 6.333 17.174 15.242 17.174 6.333 0 10.304-2.683 14.383-6.977l10.948 11.7c-5.904 6.548-13.203 10.519-25.117 10.519-19.213 0-32.953-14.813-32.953-32.738v-0.215c-0.107-17.925 13.632-32.416 32.631-32.416z" />
<glyph unicode="&#xe91f;" d="M568.245 358.373h17.818v35.099c0 8.48 4.294 12.773 11.163 12.773 6.762 0 10.841-4.294 10.841-12.773v-35.099h17.818v40.681c0 14.383-7.836 23.4-21.36 23.4-9.016 0-14.276-4.83-18.462-10.090v31.665h-17.818v-85.655z" />
<glyph unicode="&#xe920;" d="M664.634 369.536c-5.796 0-9.768 2.791-9.768 7.621v0.215c0 5.689 4.723 8.694 12.344 8.694 4.294 0 8.265-0.966 11.378-2.361v-3.113c0-6.548-5.689-11.056-13.954-11.056zM659.16 357.192c8.694 0 14.705 3.22 18.999 7.943v-6.762h17.281v36.495c0 8.48-2.147 15.349-6.762 20.072-4.508 4.508-11.485 7.084-21.253 7.084-10.626 0-17.496-2.039-24.366-5.045l4.508-13.632c5.796 2.039 10.519 3.327 17.389 3.327 8.909 0 13.525-4.079 13.525-11.485v-1.073c-4.508 1.503-9.016 2.576-15.349 2.576-14.92 0-25.332-6.333-25.332-20.072v-0.215c-0.215-12.451 9.553-19.213 21.36-19.213z" />
<glyph unicode="&#xe921;" d="M731.291 357.3c6.011 0 10.304 1.395 14.061 3.649v14.276c-2.576-1.395-5.582-2.254-8.802-2.254-3.971 0-5.796 2.039-5.796 6.118v26.834h14.813v15.242h-14.813v16.101h-17.818v-16.101h-7.514v-15.242h7.514v-29.84c0.107-14.491 7.514-18.784 18.355-18.784z" />
<glyph unicode="&#xe922;" d="M779.592 357.192c9.016 0 14.276 4.83 18.462 10.090v-8.909h17.711v62.9h-17.818v-35.099c0-8.48-4.294-12.773-11.163-12.773-6.762 0-10.841 4.294-10.841 12.773v35.099h-17.818v-40.681c0.107-14.491 7.943-23.4 21.468-23.4z" />
<glyph unicode="&#xe923;" d="M833.369 368.356h7.728v-9.982h-7.728v9.982z" />
<glyph unicode="&#xe924;" d="M881.026 357.192c11.485 0 20.609 6.762 20.609 17.496v0.215c0 10.519-10.090 14.061-19.75 16.745-8.587 2.469-16.637 4.938-16.637 11.592v0.215c0 6.011 5.367 10.412 13.632 10.412 6.333 0 12.881-2.361 18.462-6.011l3.113 4.83c-6.011 3.971-14.061 6.548-21.253 6.548-11.592 0-19.75-6.87-19.75-16.53v-0.215c0-10.734 10.734-13.632 20.501-16.423 8.372-2.361 15.886-4.938 15.886-11.914v-0.215c0-6.977-6.333-11.378-14.383-11.378-7.621 0-14.92 2.791-21.468 7.836l-3.435-4.616c6.333-5.045 15.886-8.587 24.473-8.587z" />
<glyph unicode="&#xe925;" d="M919.883 358.373h5.796v14.491l14.491 14.705 23.722-29.196h7.299l-26.942 33.275 26.083 26.512h-7.621l-37.031-38.319v64.188h-5.796z" />
<glyph unicode="&#xe926;" d="M499.322 433.371h34.865v-34.865h-34.865v34.865z" />
<glyph unicode="&#xe927;" d="M541.501 433.371h34.865v-34.865h-34.865v34.865z" />
<glyph unicode="&#xe928;" d="M499.322 390.949h34.865v-34.865h-34.865v34.865z" />
<glyph unicode="&#xe929;" d="M541.501 390.949h34.865v-34.865h-34.865v34.865z" />
<glyph unicode="&#xe92a;" d="M686.324 369.25v65.097l-51.2 52.419v77.288l-35.596-0.244-0.731-40.229-29.989 30.476c-16.579 16.823-30.476 30.476-30.964 30.476s-33.89-33.89-74.606-75.093l-73.874-75.093v-94.842l-1.707 0.244c-13.166 2.682-54.613 8.29-85.090 11.215-39.253 3.901-55.101 4.632-109.47 4.632-44.861 0-50.712 0-68.023-1.463-38.278-2.682-77.288-7.070-109.714-12.434-8.29-1.463-15.36-2.438-15.36-2.194-0.244 0.244 289.158 296.716 289.89 297.204 0.244 0 17.067-17.067 37.547-38.278s37.303-38.522 37.547-38.522c0.244 0 30.476 30.72 67.291 68.023 36.815 37.547 75.581 76.8 86.309 87.771l19.261 19.505 69.973-71.192c38.522-39.253 70.217-71.192 70.461-71.192s10.24 9.752 22.187 21.699l21.455 21.699 10.971-10.728c6.095-5.851 73.874-72.655 151.162-148.48 77.044-75.581 140.19-137.752 140.19-137.996-0.244-0.488-30.232-7.070-50.956-10.971-50.225-9.509-99.718-16.091-155.794-20.48-33.158-2.682-54.613-3.413-93.623-3.901l-37.303-0.244-0.244 65.829z" />
<glyph unicode="&#xe92b;" d="M29.257 162.499h6.339v38.278c0 13.653 9.996 23.65 22.918 23.65 13.41 0 20.968-8.777 20.968-22.43v-39.253h6.339v40.229c0 15.848-9.752 27.063-26.331 27.063-11.947 0-19.261-6.095-23.893-13.897v40.716h-6.339v-94.354z" />
<glyph unicode="&#xe92c;" d="M109.47 256.853h6.339v-94.354h-6.339v94.354z" />
<glyph unicode="&#xe92d;" d="M160.914 166.888c-9.996 0-19.017 5.608-19.017 15.116v0.244c0 9.265 7.802 15.36 21.699 15.36 9.509 0 16.823-1.463 22.43-2.926v-7.558c0-11.947-11.459-20.236-25.112-20.236zM160.67 161.036c12.434 0 20.724 6.095 25.356 12.434v-10.971h6.095v40.96c0 8.29-2.194 14.141-6.827 18.773s-11.947 7.314-20.724 7.314c-9.021 0-16.091-2.194-23.406-5.851l2.194-5.608c6.095 3.17 12.678 5.364 20.724 5.364 13.41 0 21.699-6.827 21.699-19.992v-2.926c-6.339 1.707-12.678 2.926-21.699 2.926-17.067 0-28.77-7.802-28.77-21.455v-0.244c-0.244-13.653 13.166-20.724 25.356-20.724z" />
<glyph unicode="&#xe92e;" d="M243.322 167.131c-13.897 0-25.844 10.971-25.844 28.526v0.244c0 17.554 11.459 28.038 25.844 28.038 13.653 0 26.819-11.459 26.819-28.282v-0.244c0-16.823-13.166-28.282-26.819-28.282zM242.59 161.036c13.166 0 21.455 7.558 27.063 16.335v-14.872h6.339v94.354h-6.339v-42.667c-5.364 8.29-13.897 15.848-27.063 15.848-15.848 0-31.939-13.166-31.939-34.377v-0.244c0-21.699 15.848-34.377 31.939-34.377z" />
<glyph unicode="&#xe92f;" d="M320.366 166.888c-9.996 0-19.017 5.608-19.017 15.116v0.244c0 9.265 7.802 15.36 21.699 15.36 9.509 0 16.823-1.463 22.43-2.926v-7.558c0-11.947-11.459-20.236-25.112-20.236zM320.122 161.036c12.434 0 20.724 6.095 25.356 12.434v-10.971h6.095v40.96c0 8.29-2.194 14.141-6.827 18.773s-11.947 7.314-20.724 7.314c-9.021 0-16.091-2.194-23.406-5.851l2.194-5.608c6.095 3.17 12.678 5.364 20.724 5.364 13.41 0 21.699-6.827 21.699-19.992v-2.926c-6.339 1.707-12.678 2.926-21.699 2.926-17.067 0-28.77-7.802-28.77-21.455v-0.244c-0.244-13.653 13.166-20.724 25.356-20.724z" />
<glyph unicode="&#xe930;" d="M374.248 162.499h6.339v38.034c0 13.41 9.265 23.65 21.211 23.65 11.703 0 19.261-8.533 19.261-22.187v-39.253h6.339v38.278c0 14.872 9.752 23.162 20.724 23.162 12.19 0 19.505-8.29 19.505-22.43v-39.253h6.339v39.985c0 16.579-9.752 27.55-25.356 27.55-12.434 0-19.505-6.827-23.893-14.141-3.657 7.558-10.728 14.141-22.187 14.141-11.703 0-17.554-6.339-21.943-13.41v11.703h-6.339v-65.829z" />
<glyph unicode="&#xe931;" d="M852.602 174.202h8.533v-10.971h-8.533v10.971z" />
<glyph unicode="&#xe932;" d="M519.802 161.768c13.897 0 21.455 5.364 28.282 12.678l-11.459 11.703c-4.632-4.389-9.265-7.314-15.848-7.314-10.728 0-17.554 8.533-17.554 19.017v0.244c0 10.24 7.070 19.017 16.823 19.017 7.070 0 11.459-2.926 15.848-7.558l11.947 12.922c-6.339 7.070-14.629 11.703-27.794 11.703-21.211 0-36.328-16.335-36.328-36.084v-0.244c0-19.992 15.116-36.084 36.084-36.084z" />
<glyph unicode="&#xe933;" d="M560.518 163.474h19.749v38.522c0 9.265 4.632 14.141 12.434 14.141 7.558 0 11.947-4.632 11.947-14.141v-38.522h19.749v44.861c0 15.848-8.533 25.6-23.65 25.6-9.996 0-15.848-5.364-20.236-10.971v34.865h-19.749v-94.354z" />
<glyph unicode="&#xe934;" d="M666.819 175.665c-6.339 0-10.728 3.17-10.728 8.29v0.244c0 6.095 5.12 9.509 13.653 9.509 4.632 0 9.265-0.975 12.434-2.682v-3.413c0-7.070-6.095-11.947-15.36-11.947zM660.724 162.011c9.509 0 16.335 3.413 20.968 8.777v-7.558h19.017v40.229c0 9.265-2.194 16.823-7.558 22.187-4.876 4.876-12.678 7.802-23.406 7.802-11.703 0-19.261-2.194-26.819-5.608l4.876-14.872c6.339 2.194 11.703 3.657 19.017 3.657 9.752 0 14.872-4.389 14.872-12.678v-1.219c-4.876 1.707-9.996 2.926-16.823 2.926-16.579 0-28.038-7.070-28.038-22.187v-0.244c0.244-13.653 10.971-21.211 23.893-21.211z" />
<glyph unicode="&#xe935;" d="M740.206 162.011c6.583 0 11.459 1.463 15.604 3.901v15.848c-2.926-1.463-6.095-2.438-9.752-2.438-4.389 0-6.339 2.194-6.339 6.827v29.501h16.335v16.823h-16.335v17.554h-19.749v-17.554h-8.29v-16.823h8.29v-32.914c0-15.848 8.29-20.724 20.236-20.724z" />
<glyph unicode="&#xe936;" d="M793.356 162.011c9.996 0 15.848 5.364 20.236 10.971v-9.752h19.749v69.242h-19.749v-38.522c0-9.265-4.632-14.141-12.434-14.141-7.558 0-11.947 4.632-11.947 14.141v38.522h-19.505v-44.861c0.244-15.848 8.777-25.6 23.65-25.6z" />
<glyph unicode="&#xe937;" d="M905.265 162.011c12.678 0 22.674 7.558 22.674 19.261v0.244c0 11.703-10.971 15.604-21.699 18.53-9.509 2.682-18.286 5.364-18.286 12.678v0.244c0 6.583 5.851 11.459 14.872 11.459 7.070 0 14.141-2.682 20.236-6.583l3.413 5.364c-6.583 4.389-15.604 7.070-23.406 7.070-12.678 0-21.699-7.558-21.699-18.286v-0.244c0-11.703 11.947-14.872 22.43-18.042 9.265-2.682 17.554-5.364 17.554-13.166v-0.244c0-7.558-7.070-12.434-15.848-12.434-8.29 0-16.335 3.17-23.65 8.533l-3.657-5.12c6.827-5.364 17.31-9.265 27.063-9.265z" />
<glyph unicode="&#xe938;" d="M947.931 163.474h6.339v15.848l15.848 16.335 26.331-32.183h8.046l-29.745 36.571 28.77 29.257h-8.533l-40.716-42.423v70.705h-6.339z" />
<glyph unicode="&#xe939;" d="M499.322 361.448h34.865v-34.865h-34.865v34.865z" />
<glyph unicode="&#xe93a;" d="M541.501 361.448h34.865v-34.865h-34.865v34.865z" />
<glyph unicode="&#xe93b;" d="M499.322 319.025h34.865v-34.865h-34.865v34.865z" />
<glyph unicode="&#xe93c;" d="M541.501 319.025h34.865v-34.865h-34.865v34.865z" />
<glyph unicode="&#xe93d;" d="M686.324 297.326v65.097l-51.2 52.419v77.288l-35.596-0.244-0.731-40.229-29.989 30.476c-16.579 16.823-30.476 30.476-30.964 30.476s-33.89-33.89-74.606-75.093l-73.874-75.093v-94.842l-1.707 0.244c-13.166 2.682-54.613 8.29-85.090 11.215-39.253 3.901-55.101 4.632-109.47 4.632-44.861 0-50.712 0-68.023-1.463-38.278-2.682-77.288-7.070-109.714-12.434-8.29-1.463-15.36-2.438-15.36-2.194-0.244 0.244 289.158 296.716 289.89 297.204 0.244 0 17.067-17.067 37.547-38.278s37.303-38.522 37.547-38.522c0.244 0 30.476 30.72 67.291 68.023 36.815 37.547 75.581 76.8 86.309 87.771l19.261 19.505 69.973-71.192c38.522-39.253 70.217-71.192 70.461-71.192s10.24 9.752 22.187 21.699l21.455 21.699 10.971-10.728c6.095-5.851 73.874-72.655 151.162-148.48 77.044-75.581 140.19-137.752 140.19-137.996-0.244-0.488-30.232-7.070-50.956-10.971-50.225-9.509-99.718-16.091-155.794-20.48-33.158-2.682-54.613-3.413-93.623-3.901l-37.303-0.244-0.244 65.829z" />
<glyph unicode="&#xe93e;" glyph-name="ty-24-hours" d="M927.4 100.868h-39.004c86.922 93.946 135.604 216.802 135.604 347.132 0 282.986-229.014 512-512 512s-512-229.014-512-512 229.014-512 512-512c65.554 0 129.548 12.026 190.206 35.746 15.43 6.034 23.048 23.434 17.014 38.866-6.034 15.43-23.434 23.048-38.866 17.014-53.664-20.986-110.308-31.626-168.354-31.626-249.824 0-452 202.176-452 452s202.176 452 452 452 452-202.176 452-452c0-116.196-43.82-225.68-122-308.934v52.602c0 16.568-13.432 30-30 30s-30-13.432-30-30v-120.8c0-17.248 14.812-31.362 32.414-30h112.986c16.568 0 30 13.432 30 30s-13.432 30-30 30zM212 478h-60c-16.568 0-30-13.432-30-30s13.432-30 30-30h60c16.568 0 30 13.432 30 30s-13.432 30-30 30zM782 448c0-16.568 13.432-30 30-30h60c16.568 0 30 13.432 30 30s-13.432 30-30 30h-60c-16.568 0-30-13.432-30-30zM838.77 602.020c14.35 8.284 19.266 26.632 10.98 40.98-8.286 14.35-26.632 19.262-40.98 10.98l-51.96-30c-14.35-8.284-19.266-26.632-10.98-40.98 8.286-14.35 26.63-19.266 40.98-10.98zM707 785.75c-14.35 8.288-32.698 3.37-40.98-10.98l-30-51.962c-8.286-14.348-3.37-32.696 10.98-40.98 14.348-8.286 32.696-3.368 40.98 10.98l30 51.962c8.286 14.348 3.37 32.696-10.98 40.98zM512 718c16.568 0 30 13.432 30 30v60c0 16.568-13.432 30-30 30s-30-13.432-30-30v-60c0-16.568 13.432-30 30-30zM377 681.828c14.35 8.284 19.266 26.632 10.98 40.98l-30 51.962c-8.286 14.35-26.63 19.264-40.98 10.98s-19.266-26.632-10.98-40.98l30-51.962c8.284-14.352 26.628-19.266 40.98-10.98zM278.172 583c8.286 14.348 3.37 32.696-10.98 40.98l-51.96 30c-14.35 8.286-32.698 3.37-40.98-10.98-8.286-14.348-3.37-32.696 10.98-40.98l51.96-30c14.348-8.286 32.696-3.368 40.98 10.98zM542 448v180c0 16.568-13.432 30-30 30s-30-13.432-30-30v-131.44l-76.474 38.268c-14.818 7.416-32.838 1.412-40.254-13.402-7.414-14.818-1.414-32.84 13.402-40.254l119.9-60c19.876-9.946 43.426 4.484 43.426 26.828zM682.9 88.1c16.568 0 30 13.432 30 30v209.9c0 16.568-13.432 30-30 30s-30-13.432-30-30v-75.050h-62v75.050c0 16.568-13.432 30-30 30s-30-13.432-30-30v-105.050c0-16.568 13.432-30 30-30h92v-74.85c0-16.568 13.432-30 30-30zM393.918 208.044l-66.516-33.204c-10.238-5.11-16.676-15.598-16.602-27.040l0.2-30.1c0.11-16.492 13.51-29.802 30-29.802h122c16.568 0 30 13.432 30 30s-13.432 30-30 30h-55.228l12.944 6.46c43.352 21.644 70.284 65.188 70.284 113.642 0 49.626-40.374 90-90.2 90-49.626 0-90-40.374-90-90 0-16.568 13.432-30 30-30s30 13.432 30 30c0 16.542 13.458 30 30.2 30 16.542 0 30-13.458 30-30 0-25.564-14.208-48.538-37.082-59.956z" />
<glyph unicode="&#xe93f;" glyph-name="ty-24-hours-2" d="M571.998 417.998h90v-90c0-16.568 13.432-30 30-30s30 13.432 30 30v239.999c0 16.568-13.432 30-30 30s-30-13.432-30-30v-90h-60v90c0 16.568-13.432 30-30 30s-30-13.432-30-30v-120c0-16.568 13.432-30 30-30zM686.569 864.89c15.368-6.474 32.904 0.83 39.294 16 6.432 15.268-0.73 32.862-16 39.294-35.874 15.114-83.542 33.272-134.153 39.584-16.428 2.050-31.43-9.616-33.482-26.058-2.050-16.44 9.616-31.43 26.058-33.482 43.318-5.404 85.968-21.724 118.284-35.338zM912.6 716.201c13.192 10.024 15.762 28.844 5.74 42.038-28.104 36.992-61.11 70-98.102 98.102-13.196 10.024-32.014 7.452-42.038-5.74-10.022-13.194-7.452-32.014 5.74-42.038 32.664-24.814 61.808-53.958 86.622-86.622 10.040-13.214 28.862-15.748 42.038-5.74zM982.184 647.863c-6.432 15.27-24.030 22.43-39.294 16-15.268-6.432-22.432-24.026-16-39.294 15.35-36.438 32.162-78.788 37.336-120.284 2.058-16.494 17.096-28.104 33.482-26.058 16.442 2.050 28.108 17.042 26.058 33.482-5.832 46.756-23.432 93.070-41.582 136.153zM511.998-64c257.895 0 480.122 194.507 511.768 448.286 2.050 16.44-9.616 31.432-26.058 33.482-16.43 2.050-31.43-9.616-33.482-26.058-27.668-221.893-226.311-395.71-452.228-395.71-249.233 0-451.998 202.765-451.998 451.998 0 110.65 40.942 216.667 114 299.201v-12.644c0-16.568 13.432-30 30-30s30 13.432 30 30v83.442c0 16.568-13.432 30-30 30h-86.264c-16.568 0-30-13.432-30-30s13.432-29.98 30-29.98h12.438c-81.382-91.854-130.173-211.237-130.173-340.019 0-281.917 230.099-511.998 511.998-511.998zM337.429 864.89c32.316 13.614 74.964 29.936 118.284 35.336 16.442 2.050 28.108 17.042 26.058 33.482-2.050 16.442-17.048 28.112-33.482 26.058-50.614-6.312-98.28-24.468-134.153-39.584-15.268-6.432-22.432-24.026-16-39.294 6.412-15.22 23.982-22.452 39.294-15.998zM149.999 447.998c0-199.019 163.011-361.999 361.999-361.999 199.019 0 361.999 163.011 361.999 361.999 0 199.019-163.011 361.999-361.999 361.999-199.019 0-361.999-163.011-361.999-361.999zM511.998 749.997c166.523 0 301.999-135.475 301.999-301.999s-135.475-301.999-301.999-301.999-301.999 135.475-301.999 301.999 135.477 301.999 301.999 301.999zM373.999 441.998c-32.078-24.058-72-54-72-114 0-16.568 13.432-30 30-30h120c16.568 0 30 13.432 30 30s-13.432 30-30 30h-81.214c8.024 12.088 21.334 22.59 39.214 36 32.078 24.058 72 54 72 114 0 49.626-40.374 90-90 90s-90-40.374-90-90c0-16.568 13.432-30 30-30s30 13.432 30 30c0 16.542 13.458 30 30 30s30-13.458 30-30c0-28.606-17.344-43.008-48-66z" />
<glyph unicode="&#xe940;" glyph-name="ty-30-minutes" d="M407.417 59.293c-9.005 2.234-18.049 4.794-26.882 7.615-15.738 5.032-32.572-3.66-37.598-19.399s3.66-32.572 19.399-37.598c10.080-3.219 20.401-6.143 30.678-8.692 2.417-0.6 4.84-0.886 7.224-0.886 13.426 0 25.636 9.102 29.012 22.72 3.981 16.039-5.796 32.263-21.833 36.24zM53.426 498.476c1.207-0.146 2.407-0.215 3.592-0.215 14.934 0 27.848 11.167 29.666 26.364 2.118 17.692 5.381 35.41 9.699 52.662 4.011 16.029-5.73 32.273-21.757 36.284-16.033 4.011-32.273-5.732-36.284-21.757-4.926-19.685-8.65-39.898-11.065-60.079-1.962-16.404 9.745-31.294 26.148-33.258zM137.477 265.853c-8.027 14.439-26.242 19.637-40.683 11.607-14.439-8.029-19.637-26.244-11.607-40.683 9.876-17.762 20.985-35.065 33.015-51.425 5.863-7.976 14.932-12.196 24.126-12.196 6.153 0 12.361 1.893 17.698 5.816 13.311 9.788 16.166 28.514 6.38 41.824-10.54 14.334-20.273 29.493-28.929 45.057zM217.188 793.712c6.783 0 13.606 2.296 19.21 6.996 13.642 11.442 28.147 22.122 43.117 31.745 13.899 8.933 17.922 27.443 8.987 41.342-8.933 13.897-27.443 17.922-41.342 8.987-17.086-10.983-33.643-23.175-49.213-36.232-12.658-10.618-14.314-29.487-3.696-42.145 5.917-7.054 14.397-10.692 22.937-10.692zM283.621 112.008c-10.159 6.388-20.201 13.311-29.852 20.572-4.617 3.476-9.22 7.088-13.683 10.734-12.79 10.457-31.639 8.56-42.095-4.23-10.457-12.794-8.56-31.639 4.232-42.095 5.076-4.15 10.313-8.259 15.566-12.212 10.979-8.265 22.413-16.143 33.98-23.418 4.946-3.111 10.455-4.595 15.897-4.595 9.942 0 19.669 4.954 25.353 13.995 8.795 13.987 4.587 32.455-9.398 41.25zM97.661 365.088c-4.513 17.227-7.984 34.92-10.313 52.588-2.16 16.38-17.196 27.903-33.571 25.745-16.38-2.162-27.907-17.194-25.745-33.571 2.657-20.129 6.609-40.291 11.751-59.919 3.522-13.442 15.646-22.343 28.921-22.343 2.509 0 5.060 0.319 7.599 0.983 15.983 4.184 25.546 20.534 21.36 36.517zM94.627 664.861c4.539-2.469 9.435-3.642 14.266-3.642 10.608 0 20.883 5.654 26.308 15.63 8.482 15.598 18.071 30.867 28.498 45.382 9.639 13.42 6.575 32.112-6.843 41.75-13.42 9.639-32.112 6.575-41.75-6.843-11.875-16.531-22.798-33.928-32.467-51.706-7.894-14.515-2.525-32.678 11.988-40.572zM366.743 877.010c3.109 0 6.274 0.489 9.388 1.518 8.797 2.906 17.822 5.562 26.822 7.898 15.993 4.148 25.594 20.476 21.446 36.469s-20.474 25.594-36.469 21.446c-10.255-2.661-20.538-5.688-30.566-9.001-15.688-5.183-24.206-22.1-19.024-37.79 4.156-12.575 15.847-20.54 28.404-20.54zM992.072 541.459c-18.157 128.674-85.338 242.573-189.163 320.719-84.676 63.733-185.298 97.557-290.992 97.822-16.557 0.064-29.95-13.318-29.992-29.84s13.318-29.95 29.84-29.992c92.665-0.231 180.899-29.9 255.161-85.794 91.056-68.535 149.974-168.428 165.899-281.276s-13.047-225.144-81.58-316.199c-62.388-82.887-151.007-138.999-250.345-160.406l5.997 4.864c12.834 10.407 14.802 29.246 4.396 42.079-10.409 12.832-29.244 14.798-42.079 4.396l-83.481-67.689c-7.77-6.302-11.879-16.071-10.943-26.031 0.935-9.962 6.787-18.795 15.594-23.542l94.614-50.982c4.515-2.433 9.372-3.586 14.164-3.586 10.648 0 20.957 5.7 26.362 15.73 7.838 14.545 2.399 32.69-12.146 40.528l-7.607 4.1c116.436 23.095 220.499 87.869 293.276 184.56 78.148 103.824 111.183 231.865 93.026 360.539zM711.598 375.56v-53.507l-48.501 70.232c-7.437 10.774-21.025 15.452-33.52 11.559-12.501-3.897-21.013-15.468-21.013-28.56v-146.761c0-16.521 13.394-29.916 29.916-29.916s29.916 13.394 29.916 29.916v50.795l44.706-64.738c8.205-11.861 22.62-17.040 35.877-12.908 13.428 4.192 22.451 16.974 22.451 31.804v142.080c0 16.521-13.394 29.916-29.916 29.916-16.521 0.002-29.916-13.39-29.916-29.914zM436.19 378.518c-0.024 0.12-0.046 0.241-0.072 0.361-3.014 14.78-15.634 25.696-30.696 26.545-15.052 0.838-28.831-8.578-33.488-22.925-0.112-0.343-0.215-0.686-0.315-1.033l-15.435-54.142-16.059 54.429c-0.106 0.357-0.217 0.71-0.335 1.063-4.804 14.302-18.651 23.582-33.733 22.576-15.054-1.009-27.56-12.064-30.412-26.88-0.022-0.114-0.042-0.227-0.064-0.341l-25.843-143.183c-2.934-16.26 7.868-31.82 24.128-34.754 16.246-2.932 31.818 7.868 34.752 24.128l5.907 32.724 10.255-34.76c0.104-0.357 0.215-0.712 0.335-1.063 4.559-13.566 17.204-22.652 31.503-22.652 0.058 0 0.116 0.002 0.174 0.002 14.37 0.074 27.004 9.308 31.441 22.975 0.112 0.343 0.215 0.688 0.315 1.035l9.886 34.678 6.352-33.242c3.103-16.228 18.773-26.866 34.999-23.767 16.228 3.101 26.87 18.771 23.767 34.999zM506.334 378.591v-147.034c0-16.521 13.394-29.916 29.916-29.916s29.916 13.394 29.916 29.916v147.034c0 16.521-13.394 29.916-29.916 29.916s-29.916-13.394-29.916-29.916zM314.008 661.283c16.216-3.187 31.936 7.379 35.121 23.59 3.197 16.276 17.592 28.089 34.228 28.089 19.234 0 34.882-15.648 34.882-34.884 0-19.234-15.648-34.882-34.882-34.882-16.521 0-29.916-13.394-29.916-29.916s13.394-29.916 29.916-29.916c19.234 0 34.882-15.648 34.882-34.884 0-19.234-15.648-34.882-34.882-34.882-17.309 0-32.159 12.888-34.545 29.99-0.223 1.603-0.337 3.249-0.337 4.894 0 16.521-13.394 29.916-29.916 29.916s-29.916-13.394-29.916-29.916c0-4.408 0.307-8.841 0.913-13.171 6.486-46.487 46.812-81.542 93.802-81.542 52.225 0 94.713 42.488 94.713 94.713 0 25.049-9.792 47.843-25.73 64.799 15.935 16.956 25.73 39.748 25.73 64.798 0 52.227-42.488 94.715-94.713 94.715-45.157 0-84.243-32.126-92.938-76.389-3.185-16.214 7.377-31.938 23.588-35.123zM628.909 777.171c-56.876 0-103.147-46.272-103.147-103.146v-117.112c0-56.876 46.272-103.146 103.147-103.146s103.146 46.272 103.146 103.146v117.112c0 56.874-46.27 103.146-103.146 103.146zM672.223 556.913c0-23.885-19.429-43.314-43.314-43.314s-43.316 19.431-43.316 43.314v117.112c0 23.885 19.431 43.314 43.316 43.314s43.314-19.431 43.314-43.314z" />
<glyph unicode="&#xe941;" glyph-name="ty-accomodation" d="M1011.808 530.53l-109.808 96.54v240.93c0 16.568-13.432 30-30 30h-120c-16.568 0-30-13.432-30-30v-82.68l-190.192 167.21c-11.328 9.958-28.29 9.958-39.618 0l-480-422c-9.376-8.244-12.668-21.434-8.262-33.116s15.586-19.414 28.072-19.414h90v-362h-30c-16.568 0-30-13.432-30-30v-120c0-16.568 13.432-30 30-30h840c16.568 0 30 13.432 30 30v120c0 16.568-13.432 30-30 30h-30v362h90c12.486 0 23.666 7.732 28.070 19.416 4.406 11.682 1.116 24.87-8.262 33.114zM782 838h60v-158.178l-60 52.75zM902-4h-780v60h780zM602 116h-180v92c0 49.626 40.374 90 90 90s90-40.374 90-90zM872 538c-16.568 0-30-13.432-30-30v-392h-180v92c0 82.71-67.29 150-150 150s-150-67.29-150-150v-92h-180v392c0 16.568-13.432 30-30 30h-40.442l400.442 352.054 400.442-352.054zM352 608.268c0-41.986 25.112-86.484 74.638-132.256 34.252-31.656 68.206-52.68 69.634-53.56 4.822-2.968 10.274-4.452 15.726-4.452s10.904 1.484 15.726 4.452c1.43 0.88 35.382 21.904 69.634 53.56 49.53 45.772 74.642 90.27 74.642 132.256 0 51.444-28.514 93.042-72.64 105.978-30.542 8.954-62.212 1.598-87.36-18.838-65.326 53.086-160 7.97-160-87.14zM537.252 634.494c27.488 42.86 74.748 22.856 74.748-26.226 0-40.918-56.056-93.666-99.93-124.304-36.866 26.012-100.070 79.804-100.070 124.304 0 49.038 47.222 69.138 74.748 26.226 5.518-8.602 15.034-13.804 25.252-13.804s19.734 5.204 25.252 13.804z" />
<glyph unicode="&#xe942;" glyph-name="ty-add" d="M514 960c-279.79 0-514-226.050-514-510 0-281.026 231.598-514 514-514 284.26 0 510 234.514 510 514 0 281.88-228.1 510-510 510zM514-4.4c-250.336 0-454.4 204.064-454.4 454.4 0 248.13 204.064 450.4 454.4 450.4 248.13 0 450.4-202.27 450.4-450.4 0-250.336-202.27-454.4-450.4-454.4zM754 540h-150v150c0 49.626-40.374 90-90 90s-90-40.374-90-90v-150h-154c-49.626 0-90-40.374-90-90s40.374-90 90-90h154v-154c0-49.626 40.374-90 90-90s90 40.374 90 90v154h150c49.626 0 90 40.374 90 90s-40.374 90-90 90zM754 420h-180c-16.568 0-30-13.432-30-30v-184c0-16.542-13.458-30-30-30s-30 13.458-30 30v184c0 16.568-13.432 30-30 30h-184c-16.542 0-30 13.458-30 30s13.458 30 30 30h184c16.568 0 30 13.432 30 30v180c0 16.542 13.458 30 30 30s30-13.458 30-30v-180c0-16.568 13.432-30 30-30h180c16.542 0 30-13.458 30-30s-13.458-30-30-30z" />
<glyph unicode="&#xe943;" glyph-name="ty-advertising" d="M1021.72-21.766l-90.17 220.494c55.676 92.166 80.376 201.316 69.684 309.216-11.39 114.922-62.712 223.26-144.514 305.062-94.79 94.79-220.816 146.992-354.868 146.992-134.048 0-260.076-52.204-354.862-146.99s-146.99-220.814-146.99-354.864c0-134.048 52.204-260.076 146.99-354.862 81.802-81.802 190.144-133.126 305.064-144.512 16.46-1.632 32.934-2.438 49.388-2.438 91.404 0.002 181.722 24.94 259.826 72.122l220.496-90.17c3.754-1.534 7.688-2.282 11.592-2.282 7.974 0 15.812 3.114 21.67 8.974 8.726 8.726 11.366 21.836 6.694 33.258zM769.916 91.116c-9.296 3.802-19.87 2.804-28.298-2.672-173.172-112.572-405.030-88.108-551.302 58.166-171.782 171.782-171.782 451.29 0 623.070 85.892 85.89 198.714 128.836 311.536 128.836 112.82 0 225.644-42.944 311.534-128.836 146.274-146.276 170.736-378.132 58.166-551.304-5.476-8.424-6.474-18.996-2.672-28.296l68.472-167.438-167.436 68.474zM708.788 559.070l-187.708 151.128c-11.216 9.032-27.21 9.032-38.426 0l-187.726-151.128c-7.224-5.816-11.426-14.592-11.426-23.866v-253.184c0-16.92 13.718-30.638 30.638-30.638h128.886c16.92 0 30.638 13.718 30.638 30.638v92.346c0 15.546 12.648 28.194 28.196 28.194s28.194-12.648 28.194-28.194v-92.346c0-16.92 13.718-30.638 30.638-30.638h128.886c16.92 0 30.638 13.718 30.638 30.638v253.186c-0.004 9.272-4.206 18.048-11.428 23.864zM591.324 312.66v61.708c0 49.334-40.134 89.47-89.47 89.47s-89.472-40.136-89.472-89.47v-61.708h-67.61v207.878l157.088 126.462 157.070-126.462v-207.878h-67.606z" />
<glyph unicode="&#xe944;" glyph-name="ty-air-conditioner" d="M994 899h-964c-16.568 0-30-13.432-30-30v-420c0-8.118 3.29-15.89 9.12-21.542l61.9-60c5.596-5.426 13.084-8.458 20.88-8.458h840.2c7.794 0 15.284 3.034 20.88 8.458l61.9 60c5.83 5.65 9.12 13.422 9.12 21.542v420c0 16.568-13.432 30-30 30zM362 479v-60h-60v60zM482 479v-60h-60v60zM602 479v-60h-60v60zM722 479v-60h-60v60zM842 479v-60h-60v60zM242 419h-60v60h60zM964 461.702l-44.054-42.702h-17.946v90c0 16.568-13.432 30-30 30h-720c-16.568 0-30-13.432-30-30v-90h-17.946l-44.054 42.702v377.298h904zM182 749c0-16.569-13.431-30-30-30s-30 13.431-30 30c0 16.569 13.431 30 30 30s30-13.431 30-30zM302 749c0-16.569-13.431-30-30-30s-30 13.431-30 30c0 16.569 13.431 30 30 30s30-13.431 30-30zM632 599h240c16.568 0 30 13.432 30 30v120c0 16.568-13.432 30-30 30h-240c-16.568 0-30-13.432-30-30v-120c0-16.568 13.432-30 30-30zM662 719h180v-60h-180zM452 299c-16.568 0-30-13.432-30-30v-242c0-16.568 13.432-30 30-30s30 13.432 30 30v242c0 16.568-13.432 30-30 30zM572 299c-16.568 0-30-13.432-30-30v-242c0-16.568 13.432-30 30-30s30 13.432 30 30v242c0 16.568-13.432 30-30 30zM332.024 299c-0.008 0-0.016 0-0.026 0-16.556 0-29.986-13.416-30-29.976l-0.126-152.138c-0.028-33.022-26.916-59.886-59.938-59.886-33.046 0-59.934 26.888-59.934 60.062 0 25.412 16.092 48.144 40.044 56.566 15.63 5.496 23.846 22.624 18.348 38.252-5.496 15.628-22.622 23.848-38.252 18.348-47.934-16.854-80.14-62.332-80.14-113.29 0-66.134 53.804-119.938 119.938-119.938 66.080 0 119.882 53.758 119.938 119.838l0.124 152.138c0.014 16.568-13.408 30.010-29.976 30.024zM821.86 230.23c-15.628 5.498-32.758-2.718-38.252-18.348-5.498-15.63 2.718-32.756 18.348-38.252 23.952-8.424 40.044-31.156 40.044-56.692 0-33.050-26.888-59.938-59.938-59.938-33.022 0-59.91 26.866-59.938 59.886l-0.124 152.138c-0.014 16.56-13.442 29.976-30 29.976-0.008 0-0.018 0-0.026 0-16.568-0.014-29.99-13.456-29.976-30.024l0.126-152.138c0.054-66.080 53.858-119.838 119.938-119.838 66.134 0 119.938 53.804 119.938 120.062 0 50.834-32.206 96.312-80.14 113.168z" />
<glyph unicode="&#xe945;" glyph-name="ty-air-conditioning" d="M951.162 806.812h-878.326c-40.162 0-72.836-32.676-72.836-72.84v-262.696c0-69.432 56.488-125.92 125.92-125.92h772.16c69.432 0 125.92 56.488 125.92 125.92v262.696c0 40.164-32.676 72.84-72.838 72.84zM772.482 406.886h-520.95v28.448c0 21.186 17.234 38.422 38.42 38.422h444.112c21.184 0 38.422-17.234 38.422-38.422v-28.448zM898.080 406.886h-64.066v28.448c0 55.114-44.836 99.95-99.95 99.95h-444.114c-55.112 0-99.948-44.836-99.948-99.95v-28.448h-64.082c-35.506 0-64.39 28.886-64.39 64.39v262.696c0 6.234 5.072 11.308 11.308 11.308h878.324c6.234 0 11.308-5.072 11.308-11.308v-262.694h0.002c-0.002-35.504-28.886-64.392-64.392-64.392zM220.766 713.722c-16.99 0-30.764-13.774-30.764-30.764v-36.918c0-16.99 13.774-30.764 30.764-30.764s30.764 13.774 30.764 30.764v36.918c0.002 16.988-13.774 30.764-30.764 30.764zM295.114 713.722c-16.99 0-30.764-13.774-30.764-30.764v-36.918c0-16.99 13.774-30.764 30.764-30.764s30.764 13.774 30.764 30.764v36.918c0.002 16.988-13.772 30.764-30.764 30.764zM439.168 141.71l-20.458 20.464c-1.794 1.794-1.794 4.716 0 6.508 12.49 12.49 19.37 29.098 19.37 46.762s-6.88 34.272-19.37 46.762l-24.1 24.1c-12.012 12.014-31.492 12.014-43.508 0-12.014-12.014-12.014-31.494 0-43.508l24.1-24.1c1.114-1.114 1.348-2.386 1.348-3.256s-0.234-2.14-1.35-3.254c-25.782-25.786-25.782-67.74 0-93.526l20.462-20.462c6.008-6.008 13.882-9.012 21.752-9.012s15.748 3.002 21.752 9.012c12.016 12.018 12.016 31.496 0.002 43.51zM556.040 141.708l-20.46 20.466c-1.114 1.114-1.348 2.384-1.348 3.252s0.234 2.14 1.348 3.256c25.786 25.782 25.786 67.738 0 93.526l-24.1 24.1c-12.012 12.014-31.494 12.014-43.508 0s-12.014-31.492 0-43.508l24.1-24.1c1.794-1.794 1.794-4.716 0-6.51-12.49-12.49-19.37-29.1-19.37-46.762 0-17.666 6.88-34.272 19.37-46.762l20.46-20.462c6.008-6.008 13.882-9.012 21.754-9.012s15.748 3.004 21.752 9.010c12.016 12.014 12.016 31.492 0.002 43.506zM672.908 141.708l-20.46 20.466c-1.114 1.114-1.348 2.384-1.348 3.252s0.234 2.14 1.348 3.252c12.49 12.49 19.37 29.098 19.37 46.762s-6.88 34.272-19.37 46.762l-24.1 24.1c-12.012 12.014-31.492 12.014-43.508 0-12.014-12.014-12.014-31.494 0-43.508l24.1-24.1c1.114-1.114 1.348-2.386 1.348-3.256s-0.234-2.14-1.348-3.254c-12.49-12.49-19.37-29.1-19.37-46.762 0-17.666 6.88-34.272 19.37-46.762l20.462-20.462c6.008-6.008 13.882-9.012 21.752-9.012 7.872 0 15.748 3.002 21.752 9.012 12.016 12.018 12.016 31.496 0.002 43.51z" />
<glyph unicode="&#xe946;" glyph-name="ty-armchair" d="M1014.454 525.206c-18.91 44.216-62.218 72.788-110.334 72.788v91.996c0 148.872-121.118 269.99-269.99 269.99h-243.992c-148.872 0-269.99-121.118-269.99-269.99v-91.996c-51.822 0-97.598-33.028-113.91-82.186-17.566-52.944 2.476-109.17 53.698-152.788 0.14-47.232 0.188-153.548 0.206-217.186 0.010-39.032 25.096-72.312 60.006-84.67v-95.146c0-16.568 13.432-29.998 30-29.998h59.998c10.538 0 20.302 5.53 25.724 14.566l63.258 105.43h426.012l63.258-105.43c5.422-9.036 15.186-14.566 25.724-14.566h59.998c16.568 0 30 13.432 30 29.998v95.156c34.916 12.384 59.998 45.728 59.998 84.838l0.002 217.318c64.5 54.416 68.886 118.49 50.334 161.876zM180.146 689.99c0 115.79 94.202 209.992 209.992 209.992h243.992c115.79 0 209.992-94.202 209.992-209.992v-108.14c-35.83-20.782-59.998-59.536-59.998-103.852v-65.158c-9.39 3.33-19.484 5.16-29.998 5.16h-483.984c-10.516 0-20.61-1.83-29.998-5.16v65.158c0 44.316-24.168 83.072-59.998 103.852v108.14zM784.124 328.004c0-16.542-13.458-30-29.998-30h-483.984c-16.542 0-29.998 13.458-29.998 30s13.458 29.998 29.998 29.998h483.984c16.54 0 29.998-13.456 29.998-29.998zM193.16-3.984h-13.014v59.998h49.012l-35.998-59.998zM844.12-3.984h-13.014l-35.998 59.998h49.012v-59.998zM916.266 401.95c-7.64-5.658-12.144-14.602-12.144-24.108l-0.002-231.832c0-16.542-13.458-30-30-30h-723.984c-16.538 0-29.996 13.384-29.998 29.834-0.018 71.362-0.078 196.37-0.26 231.808-0.048 9.418-4.516 18.266-12.066 23.896-38.856 28.974-55.124 63.734-44.628 95.364 8.154 24.574 31.044 41.082 56.964 41.082 33.082 0 59.998-26.916 59.998-59.998v-149.994c0-49.624 40.372-89.996 89.996-89.996h483.984c49.624 0 89.996 40.372 89.996 89.996v149.994c0 33.082 26.916 59.998 59.998 59.998 24.064 0 45.716-14.28 55.168-36.38 13.788-32.242-2.296-69.498-43.022-99.664zM330.14 599.994c7.678 0 15.356 2.93 21.212 8.786l8.788 8.788 8.788-8.788c5.858-5.858 13.536-8.786 21.212-8.786 26.494 0 40.166 32.256 21.212 51.212l-8.786 8.786 8.786 8.786c11.716 11.716 11.716 30.708 0 42.424-11.714 11.714-30.708 11.714-42.424 0l-8.788-8.788-8.788 8.788c-11.714 11.714-30.708 11.714-42.424 0-11.716-11.716-11.716-30.708 0-42.424l8.786-8.786-8.786-8.786c-18.958-18.96-5.274-51.212 21.212-51.212zM634.13 599.994c7.678 0 15.356 2.93 21.212 8.786l8.788 8.788 8.788-8.788c11.716-11.716 30.708-11.716 42.424 0s11.716 30.708 0 42.424l-8.786 8.786 8.786 8.786c11.716 11.716 11.716 30.708 0 42.424-11.714 11.714-30.708 11.714-42.424 0l-8.788-8.788-8.788 8.788c-11.714 11.714-30.708 11.714-42.424 0-11.716-11.716-11.716-30.708 0-42.424l8.786-8.786-8.786-8.786c-18.958-18.958-5.276-51.21 21.212-51.21z" />
<glyph unicode="&#xe947;" glyph-name="ty-arrow-curved-down" d="M1009.145 442.63c-19.806 19.809-51.921 19.809-71.734 0l-118.819-118.816c-19.853 202.152-169.587 376.719-378.742 418.323-153.95 30.62-312.726-16.925-424.714-127.188-19.962-19.657-20.212-51.772-0.558-71.734 19.657-19.962 51.772-20.212 71.73-0.555 88.019 86.663 212.78 124.033 333.746 99.977 165.241-32.869 283.283-171.369 297.817-331.322l-131.324 131.324c-19.806 19.806-51.924 19.809-71.734-0.003-19.809-19.809-19.809-51.924 0-71.734l211.299-211.299c9.905-9.905 22.887-14.855 35.865-14.855s25.964 4.951 35.869 14.855l211.292 211.289c19.816 19.809 19.816 51.928 0.007 71.737z" />
<glyph unicode="&#xe948;" glyph-name="ty-arrow-curved-left" d="M813.98 317.993c-1.417 19.295-4.021 38.614-7.849 57.859-41.634 209.286-216.13 358.941-418.301 378.754l118.798 118.802c19.809 19.809 19.809 51.924 0 71.733-19.806 19.809-51.924 19.809-71.733 0l-211.291-211.291c-0.007-0.007-0.014-0.017-0.020-0.024-1.204-1.207-2.347-2.465-3.422-3.784-0.487-0.592-0.9-1.217-1.349-1.826-0.521-0.703-1.069-1.386-1.556-2.117-0.636-0.95-1.194-1.934-1.755-2.915-0.25-0.436-0.531-0.856-0.771-1.299-0.511-0.957-0.947-1.941-1.393-2.922-0.237-0.521-0.504-1.028-0.724-1.556-0.355-0.859-0.643-1.731-0.95-2.6-0.243-0.7-0.514-1.39-0.734-2.1-0.213-0.707-0.369-1.42-0.551-2.134-0.23-0.9-0.48-1.792-0.659-2.709-0.108-0.558-0.169-1.119-0.26-1.677-0.176-1.072-0.358-2.141-0.467-3.229-0.047-0.477-0.047-0.957-0.078-1.434-0.081-1.153-0.166-2.306-0.166-3.473-0.003-0.761 0.071-1.515 0.101-2.272 0.041-0.876 0.041-1.745 0.125-2.624 0.159-1.684 0.409-3.358 0.737-5.018 0.003-0.014 0.003-0.030 0.007-0.044 0.037-0.186 0.098-0.362 0.139-0.548 0.304-1.451 0.653-2.891 1.085-4.315 0.156-0.507 0.352-0.994 0.521-1.495 0.365-1.069 0.724-2.137 1.157-3.185 0.284-0.686 0.622-1.336 0.93-2.002 0.382-0.825 0.754-1.657 1.184-2.465 0.436-0.812 0.923-1.579 1.397-2.36 0.379-0.626 0.737-1.265 1.146-1.877 0.632-0.947 1.322-1.84 2.009-2.736 0.325-0.419 0.615-0.856 0.95-1.265 0.947-1.153 1.951-2.249 2.993-3.311 0.132-0.132 0.24-0.281 0.372-0.413l0.068-0.068c0.054-0.051 0.101-0.101 0.152-0.152l211.078-211.082c9.905-9.905 22.887-14.859 35.865-14.859s25.964 4.954 35.868 14.859c19.809 19.806 19.809 51.924 0 71.733l-131.327 131.327c159.959-14.531 298.458-132.575 331.324-297.819 4.511-22.68 6.861-45.496 7.132-68.176 1.045-86.944-28.476-171.923-84.049-239.883-7.247-8.863-14.94-17.439-23.062-25.69-19.657-19.961-19.404-52.076 0.555-71.73 8.647-8.515 19.569-13.29 30.772-14.351 1.599-0.152 3.206-0.227 4.812-0.227 13.114 0 26.221 5.055 36.146 15.136 96.493 97.985 144.955 231.79 135.047 366.851z" />
<glyph unicode="&#xe949;" glyph-name="ty-arrow-curved-right" d="M815.143 695.776c0.034 0.757 0.105 1.515 0.101 2.272 0 1.167-0.081 2.32-0.166 3.473-0.034 0.477-0.034 0.957-0.078 1.434-0.108 1.089-0.291 2.157-0.467 3.229-0.091 0.561-0.152 1.123-0.26 1.677-0.183 0.916-0.429 1.809-0.663 2.709-0.179 0.71-0.338 1.427-0.548 2.134-0.216 0.71-0.49 1.4-0.734 2.1-0.308 0.869-0.595 1.745-0.95 2.6-0.216 0.531-0.487 1.035-0.72 1.556-0.45 0.981-0.886 1.965-1.397 2.922-0.237 0.443-0.517 0.859-0.768 1.299-0.561 0.981-1.116 1.965-1.752 2.915-0.487 0.73-1.038 1.414-1.559 2.117-0.453 0.609-0.866 1.234-1.349 1.826-1.072 1.319-2.215 2.577-3.422 3.784-0.007 0.007-0.014 0.017-0.020 0.024l-211.292 211.299c-19.806 19.809-51.924 19.809-71.734 0-19.809-19.806-19.809-51.924 0-71.734l118.795-118.795c-202.189-19.809-376.672-169.475-418.303-378.762-16.015-80.539-10.605-162.384 13.949-238.172 0.379-1.177 0.727-2.367 1.119-3.541 22.532-67.74 60.439-130.513 112.123-183.005 2.076-2.11 4.315-3.946 6.641-5.613 8.796-6.31 19.133-9.523 29.508-9.523 1.606 0 3.213 0.074 4.812 0.227 11.203 1.062 22.133 5.84 30.776 14.351 19.962 19.657 20.212 51.772 0.555 71.734-12.187 12.377-23.363 25.504-33.566 39.22-62.357 83.833-87.093 190.57-66.414 294.526 32.869 165.245 171.366 283.283 331.325 297.82l-131.324-131.327c-19.809-19.809-19.809-51.924 0-71.734 9.905-9.905 22.887-14.859 35.869-14.859s25.964 4.951 35.865 14.859l211.045 211.049c0.074 0.074 0.152 0.156 0.227 0.23l0.024 0.020c0.044 0.044 0.078 0.091 0.122 0.135 1.143 1.146 2.228 2.347 3.256 3.601 0.298 0.358 0.548 0.741 0.832 1.106 0.734 0.943 1.461 1.89 2.127 2.888 0.389 0.582 0.72 1.187 1.082 1.782 0.494 0.812 1.001 1.61 1.451 2.452 0.423 0.791 0.785 1.606 1.16 2.411 0.321 0.683 0.659 1.349 0.95 2.049 0.433 1.042 0.788 2.103 1.15 3.165 0.172 0.507 0.372 0.998 0.528 1.515 0.433 1.424 0.781 2.864 1.085 4.312 0.041 0.186 0.101 0.362 0.139 0.551 0.003 0.014 0.003 0.030 0.007 0.044 0.328 1.664 0.578 3.338 0.737 5.018 0.085 0.886 0.085 1.758 0.125 2.631z" />
<glyph unicode="&#xe94a;" glyph-name="ty-arrow-curved-up" d="M1009.141 525.108l-211.291 211.288c-0.014 0.010-0.024 0.020-0.037 0.030-1.2 1.197-2.452 2.33-3.757 3.398-0.724 0.592-1.485 1.106-2.232 1.65-0.571 0.416-1.123 0.866-1.714 1.258-0.981 0.656-1.999 1.234-3.013 1.813-0.406 0.23-0.795 0.494-1.204 0.71-0.967 0.517-1.961 0.96-2.956 1.414-0.511 0.233-1.008 0.494-1.528 0.71-0.856 0.355-1.735 0.643-2.604 0.95-0.7 0.247-1.386 0.517-2.1 0.734-0.697 0.213-1.407 0.365-2.113 0.544-0.906 0.233-1.806 0.484-2.729 0.666-0.541 0.108-1.085 0.166-1.627 0.254-1.089 0.179-2.178 0.365-3.284 0.473-0.44 0.044-0.883 0.041-1.322 0.074-1.19 0.085-2.381 0.172-3.588 0.172-0.653 0-1.305-0.064-1.958-0.088-0.981-0.037-1.951-0.044-2.939-0.142-1.674-0.159-3.344-0.409-5.001-0.734-0.017-0.003-0.034-0.003-0.054-0.007-0.227-0.047-0.443-0.122-0.673-0.169-1.403-0.298-2.8-0.636-4.18-1.055-0.534-0.162-1.048-0.372-1.576-0.551-1.042-0.355-2.083-0.703-3.108-1.126-0.703-0.291-1.37-0.636-2.053-0.954-0.808-0.379-1.623-0.737-2.414-1.16-0.822-0.436-1.603-0.933-2.394-1.414-0.619-0.375-1.244-0.724-1.85-1.126-0.95-0.636-1.853-1.329-2.753-2.026-0.413-0.318-0.839-0.605-1.244-0.937-1.153-0.947-2.249-1.951-3.304-2.989-0.135-0.132-0.284-0.24-0.416-0.375l-0.068-0.068c-0.054-0.051-0.101-0.101-0.152-0.152l-211.082-211.078c-19.809-19.806-19.809-51.924 0-71.733 9.905-9.905 22.887-14.859 35.865-14.855s25.964 4.954 35.865 14.855l131.327 131.324c-14.537-159.952-132.575-298.455-297.819-331.324-22.68-4.511-45.496-6.865-68.176-7.135-49.141-0.588-97.653 8.586-142.821 26.708-3.476 1.393-6.929 2.841-10.361 4.342-41.205 17.997-79.379 43.565-112.387 76.062-19.961 19.661-52.080 19.404-71.73-0.558-19.657-19.961-19.407-52.076 0.558-71.73 28.006-27.573 58.931-51.224 91.979-70.716 72.704-42.872 155.654-65.593 240.282-65.589 0 0 0 0 0 0h0.003c30.728 0.003 61.697 2.999 92.452 9.117 209.286 41.631 358.945 216.13 378.757 418.301l118.798-118.795c19.806-19.809 51.924-19.809 71.733 0 19.799 19.809 19.799 51.928-0.010 71.737z" />
<glyph unicode="&#xe94b;" glyph-name="ty-arrow-down" d="M1010.368 713.641c-18.174 18.174-47.647 18.178-65.825-0.003l-432.531-432.541-432.553 432.544c-18.174 18.174-47.647 18.178-65.825-0.003-18.178-18.178-18.178-47.647 0-65.825l465.467-465.455c8.729-8.729 20.567-13.632 32.911-13.632s24.185 4.906 32.911 13.635l465.442 465.455c18.181 18.174 18.181 47.647 0.003 65.825z" />
<glyph unicode="&#xe94c;" glyph-name="ty-arrow-left" d="M345.097 447.988l432.544 432.553c18.178 18.178 18.178 47.647 0 65.825s-47.647 18.178-65.825-0.003l-465.455-465.467c-8.732-8.726-13.635-20.564-13.635-32.908 0-12.347 4.906-24.185 13.635-32.914l465.455-465.442c9.086-9.089 20.998-13.632 32.911-13.632s23.825 4.543 32.914 13.635c18.178 18.178 18.178 47.647 0 65.825l-432.544 432.528z" />
<glyph unicode="&#xe94d;" glyph-name="ty-google" horiz-adv-x="860" d="M438.857 501.714h414.286c4-22.286 6.857-44 6.857-73.143 0-250.286-168-428.571-421.143-428.571-242.857 0-438.857 196-438.857 438.857s196 438.857 438.857 438.857c118.286 0 217.714-43.429 294.286-114.857l-119.429-114.857c-32.571 31.429-89.714 68-174.857 68-149.714 0-272-124-272-277.143s122.286-277.143 272-277.143c173.714 0 238.857 124.571 249.143 189.143h-249.143v150.857z" />
<glyph unicode="&#xe94e;" glyph-name="ty-arrow-right" d="M777.638 480.926l-465.455 465.442c-18.174 18.178-47.647 18.178-65.825-0.003-18.174-18.178-18.174-47.647 0.003-65.825l432.541-432.531-432.544-432.553c-18.174-18.178-18.174-47.647 0.003-65.825 9.086-9.089 20.998-13.632 32.911-13.632s23.825 4.543 32.914 13.635l465.451 465.467c8.732 8.729 13.635 20.567 13.635 32.911s-4.903 24.185-13.635 32.914z" />
<glyph unicode="&#xe94f;" glyph-name="ty-arrow-right-2" d="M46.545 401.455h818.539l-153.271-153.271c-18.178-18.174-18.178-47.647 0-65.825 9.089-9.086 21.001-13.632 32.914-13.632s23.825 4.546 32.911 13.635l232.727 232.727c18.178 18.174 18.178 47.647 0 65.825l-232.727 232.727c-18.174 18.174-47.647 18.174-65.825 0s-18.178-47.647 0-65.825l153.271-153.271h-818.539c-25.706 0-46.545-20.84-46.545-46.545s20.84-46.545 46.545-46.545z" />
<glyph unicode="&#xe950;" glyph-name="ty-arrow-up" d="M1010.365 248.187l-465.467 465.455c-8.726 8.729-20.567 13.632-32.911 13.632-12.347 0-24.185-4.906-32.914-13.635l-465.442-465.455c-18.178-18.178-18.178-47.647 0-65.825 18.174-18.174 47.647-18.178 65.825 0l432.531 432.541 432.553-432.541c9.089-9.089 21.001-13.632 32.914-13.632s23.825 4.543 32.914 13.635c18.174 18.178 18.174 47.647-0.003 65.825z" />
<glyph unicode="&#xe951;" glyph-name="ty-baby-bed" d="M925 602h-53.52c-75.548 0-151.278-17.638-218.988-51.004-43.17-21.246-91.404-32.476-139.492-32.476-48.086 0-96.324 11.23-139.48 32.47-67.722 33.372-143.45 51.010-219 51.010h-55.52c-16.568 0-30-13.432-30-30v-606c0-16.568 13.432-30 30-30s30 13.432 30 30v50h766v-50c0-16.568 13.432-30 30-30s30 13.432 30 30v606c0 16.568-13.432 30-30 30zM895 542v-357.918c-14.908 7.602-31.76 11.918-49.612 11.918h-54.788v338.324c26.662 5.050 53.78 7.676 80.88 7.676zM679 497.17c16.694 8.226 33.956 15.322 51.6 21.336v-322.506h-105.4v279.748c18.456 5.758 36.476 12.896 53.8 21.422zM565.2 462.22v-266.22h-105.4v266.35c17.626-2.536 35.422-3.832 53.2-3.832 17.442 0.002 34.9 1.26 52.2 3.702zM399.8 476.056v-280.056h-105.4v322.846c17.994-6.084 35.598-13.298 52.612-21.682 17.006-8.37 34.684-15.404 52.788-21.108zM154.52 542c26.762 0 53.54-2.56 79.88-7.486v-338.514h-53.79c-18.18 0-35.792-4.372-51.61-12.606v358.606zM129 86.388c0 26.894 23.634 49.612 51.61 49.612h664.778c27.356 0 49.612-22.256 49.612-49.612v-10.388h-766zM164 900h54v-65.16c-34.918-12.384-60-45.73-60-84.84 0-49.626 40.374-90 90-90s90 40.374 90 90c0 39.11-25.082 72.456-60 84.84v65.16h204v-77.574l-76.066-76.066c-5.626-5.626-8.788-13.256-8.788-21.212s3.162-15.588 8.788-21.212l84.852-84.852c11.716-11.718 30.71-11.716 42.426 0l84.854 84.852c5.626 5.626 8.788 13.256 8.788 21.212s-3.16 15.588-8.788 21.212l-76.066 76.066v77.574h206v-60h-30c-16.568 0-30-13.432-30-30v-120c0-16.568 13.432-30 30-30h120c16.568 0 30 13.432 30 30v120c0 16.568-13.432 30-30 30h-30v60h52c16.568 0 30 13.432 30 30s-13.432 30-30 30h-696c-16.568 0-30-13.432-30-30s13.432-30 30-30zM248 720c-16.542 0-30 13.458-30 30s13.458 30 30 30 30-13.458 30-30-13.458-30-30-30zM512 682.72l-42.426 42.426 42.426 42.428 42.428-42.428zM808 720h-60v60h60z" />
<glyph unicode="&#xe952;" glyph-name="ty-banned" d="M874.038 810.040c-96.702 96.704-225.278 149.96-362.038 149.96s-265.334-53.256-362.038-149.96c-96.706-96.706-149.962-225.28-149.962-362.040s53.256-265.334 149.962-362.040c96.704-96.704 225.278-149.96 362.038-149.96s265.336 53.256 362.036 149.96c96.708 96.706 149.964 225.278 149.964 362.040s-53.256 265.334-149.962 362.040zM831.648 128.352c-85.382-85.382-198.9-132.404-319.648-132.404s-234.266 47.022-319.648 132.404c-85.382 85.382-132.404 198.9-132.404 319.648s47.022 234.268 132.404 319.648 198.9 132.404 319.648 132.404 234.268-47.022 319.648-132.402c85.38-85.382 132.402-198.902 132.402-319.65s-47.020-234.266-132.402-319.648zM700.56 744.116c-4.864 24.504-21.518 44.842-44.55 54.408-46.124 19.154-95.026 28.866-145.346 28.866-0.006 0 0 0-0.006 0-101.434 0-196.742-39.438-268.344-111.042-71.606-71.606-111.044-166.91-111.044-268.354 0-50.322 9.714-99.222 28.868-145.342 9.564-23.034 29.902-39.688 54.408-44.552 4.882-0.97 9.786-1.442 14.656-1.442 19.668 0 38.718 7.744 52.92 21.948l397.936 397.934c17.716 17.718 25.382 42.982 20.502 67.576zM637.666 718.928l-397.934-397.932c-5.102-5.102-11.154-4.562-13.518-4.092-2.884 0.572-8.11 2.468-10.712 8.74-16.112 38.798-24.282 79.964-24.284 122.354 0 85.428 33.2 165.676 93.484 225.962s140.532 93.484 225.962 93.484c42.388 0 83.554-8.17 122.354-24.282 6.27-2.604 8.166-7.83 8.738-10.712 0.47-2.37 1.012-8.418-4.090-13.522zM861.424 592.77c-9.532 23.064-29.86 39.75-54.38 44.636-24.61 4.91-49.908-2.752-67.644-20.492l-397.652-397.654c-17.738-17.738-25.4-43.026-20.494-67.644 4.888-24.52 21.574-44.848 44.636-54.38 45.956-18.992 94.664-28.624 144.768-28.626 0.006 0-0.004 0 0.002 0 101.402 0 196.706 39.448 268.322 111.070 71.622 71.624 111.068 166.918 111.066 268.328 0.002 50.1-9.63 98.806-28.624 144.762zM736.594 222.068c-60.3-60.3-140.538-93.508-225.934-93.508-42.21 0-83.214 8.104-121.87 24.080-6.27 2.592-8.17 7.814-8.742 10.696-0.472 2.368-1.020 8.426 4.090 13.536l397.654 397.652c5.112 5.11 11.162 4.564 13.536 4.090 2.88-0.576 8.104-2.474 10.694-8.744 15.978-38.656 24.080-79.658 24.080-121.866 0-85.396-33.208-165.636-93.508-225.936z" />
<glyph unicode="&#xe953;" glyph-name="ty-barbecue" d="M890.26 578.202h-65.122c1.32 12.030 2.020 24.244 2.020 36.618v23.38h26.852c16.568 0 30 13.432 30 30s-13.432 30-30 30c-16.488 0-684.536 0-720.272 0-16.568 0-30-13.432-30-30s13.432-30 30-30h26.852v-23.378c0-140.92 87.918-261.686 211.782-310.348l-118.924-328.246c-5.644-15.578 2.41-32.782 17.988-38.424 15.578-5.644 32.782 2.41 38.424 17.986l66.098 182.438h235.832l15.47-42.698c-20.082-16.52-32.91-41.548-32.91-69.522 0-49.626 40.374-90 90-90s90 40.372 90 90c0 49.626-40.374 90-90 90-0.23 0-0.456-0.016-0.686-0.018l-68.286 188.484c94.342 37.062 167.812 115.96 197.482 213.73h47.402v-51.94c0-16.568 13.432-30 30-30s30 13.432 30 30v81.938c-0.002 16.568-13.432 30-30.002 30zM714.35 26.006c0-16.542-13.458-30-30-30s-30 13.456-30 30 13.458 30 30 30 30-13.456 30-30zM590.054 198.226h-192.356l32.412 89.46c40.958-7.968 84.26-8.42 127.534 0zM493.876 341.54c-150.69 0-273.284 122.592-273.284 273.282v23.378h546.568v-23.378c0-150.69-122.596-273.282-273.284-273.282zM528.652 817.32c0-21.896 8.030-41.984 25.56-59.526 11.71-11.716 30.702-11.728 42.426-0.014 10.47 10.466 13.484 28.948-1.534 43.974-8.692 8.708-8.524 22.612-0.020 31.132 15.484 15.484 24.010 36.074 24.010 57.972 0 24.292-9.508 43.464-26.386 60.35-11.714 11.718-30.708 11.722-42.426 0.008-11.718-11.712-11.722-30.706-0.008-42.426l2.384-2.384c8.5-8.502 8.686-22.406-0.020-31.114-15.468-15.496-23.986-36.084-23.986-57.972zM368.652 817.32c0-21.896 8.030-41.984 25.56-59.526 11.71-11.716 30.702-11.728 42.426-0.014 11.718 11.712 11.724 30.706 0.012 42.428l-1.546 1.546c-8.692 8.708-8.524 22.612-0.020 31.132 15.484 15.484 24.010 36.074 24.010 57.972 0 24.292-9.508 43.464-26.386 60.35-11.714 11.718-30.708 11.722-42.426 0.008-11.718-11.712-11.722-30.706-0.008-42.426l2.384-2.384c8.5-8.502 8.686-22.406-0.020-31.114-15.468-15.496-23.986-36.084-23.986-57.972z" />
<glyph unicode="&#xe954;" glyph-name="ty-bars" d="M972.922 76.171h-684.745c-28.222 0-51.095 22.874-51.095 51.095s22.874 51.095 51.095 51.095h684.728c28.222 0 51.095-22.874 51.095-51.095s-22.857-51.095-51.078-51.095zM972.922 396.896h-684.745c-28.222 0-51.095 22.874-51.095 51.095s22.874 51.095 51.095 51.095h684.728c28.222 0 51.095-22.874 51.095-51.095 0.017-28.222-22.857-51.095-51.078-51.095zM972.922 717.621h-684.745c-28.222 0-51.095 22.874-51.095 51.095s22.874 51.095 51.095 51.095h684.728c28.222 0 51.095-22.874 51.095-51.095s-22.857-51.095-51.078-51.095zM137.242 764.765c0-37.898-30.723-68.621-68.621-68.621s-68.621 30.723-68.621 68.621c0 37.898 30.723 68.621 68.621 68.621s68.621-30.723 68.621-68.621zM137.242 447.991c0-37.898-30.723-68.621-68.621-68.621s-68.621 30.723-68.621 68.621c0 37.898 30.723 68.621 68.621 68.621s68.621-30.723 68.621-68.621zM137.242 131.218c0-37.898-30.723-68.621-68.621-68.621s-68.621 30.723-68.621 68.621c0 37.898 30.723 68.621 68.621 68.621s68.621-30.723 68.621-68.621z" />
<glyph unicode="&#xe955;" glyph-name="ty-bath" d="M320-45.78c-16.568 0-30 13.432-30 30v62c0 16.568 13.432 30 30 30s30-13.432 30-30v-62c0-16.568-13.432-30-30-30zM704-45.78c-16.568 0-30 13.432-30 30v62c0 16.568 13.432 30 30 30s30-13.432 30-30v-62c0-16.568-13.432-30-30-30zM663.702 18.22h-303.404c-130.568 0-242.288 93.238-265.644 221.702l-28.17 154.932c-1.592 8.752 0.784 17.76 6.484 24.59s14.136 10.778 23.032 10.778h832c8.896 0 17.332-3.948 23.034-10.778 5.7-6.83 8.074-15.838 6.482-24.59l-28.17-154.932c-23.356-128.462-135.074-221.702-265.644-221.702zM131.946 370.22l21.74-119.564c18.166-99.916 105.058-172.436 206.612-172.436h303.404c101.554 0 188.448 72.52 206.614 172.434l21.738 119.566zM994 370.22h-964c-16.568 0-30 13.432-30 30s13.432 30 30 30h964c16.568 0 30-13.432 30-30s-13.432-30-30-30zM928 370.218c-16.568 0-30 13.432-30 30v405.11c0 20.48-7.984 39.71-22.484 54.15-14.448 14.388-33.6 22.3-53.958 22.3-0.108 0-0.214 0-0.324 0-17.52-0.072-34.626-6.232-48.17-17.344l-37.132-30.466c-12.81-10.504-31.712-8.644-42.222 4.166s-8.644 31.712 4.164 42.22l37.132 30.466c24.174 19.834 54.708 30.83 85.98 30.958h0.578c36.34 0 70.516-14.116 96.292-39.788 25.886-25.78 40.144-60.108 40.144-96.662v-405.11c0-16.568-13.432-30-30-30zM671.658 668.738c-7.958 0-15.588 3.16-21.212 8.788l-113.138 113.138c-11.714 11.714-11.716 30.71-0.002 42.426l45.254 45.256c42.89 42.886 112.676 42.888 155.566 0 42.89-42.89 42.89-112.676 0-155.566l-45.254-45.256c-5.626-5.624-13.256-8.786-21.214-8.786zM600.946 811.876l70.712-70.712 24.042 24.042c19.496 19.496 19.496 51.216 0 70.712s-51.22 19.496-70.712 0zM416 626.22c-7.678 0-15.356 2.928-21.212 8.788-11.716 11.716-11.716 30.71 0 42.426l16 16c11.714 11.716 30.71 11.716 42.426 0s11.716-30.71 0-42.426l-16-16c-5.858-5.858-13.536-8.788-21.214-8.788zM544 610.22c-7.678 0-15.356 2.928-21.212 8.788-11.716 11.716-11.716 30.71 0 42.426l16 16c11.714 11.716 30.71 11.716 42.426 0s11.716-30.71 0-42.426l-16-16c-5.858-5.858-13.536-8.788-21.214-8.788zM416 498.22c-7.678 0-15.356 2.928-21.212 8.788-11.716 11.716-11.716 30.71 0 42.426l16 16c11.714 11.716 30.71 11.716 42.426 0s11.716-30.71 0-42.426l-16-16c-5.858-5.858-13.536-8.788-21.214-8.788z" />
<glyph unicode="&#xe956;" glyph-name="ty-bathing-tub" d="M1023.416 560.116c1.762 8.812-0.518 17.952-6.216 24.902s-14.212 10.98-23.2 10.98c-614.602 0-374.552 0-964 0-8.988 0-17.502-4.030-23.2-10.98s-7.98-16.090-6.216-24.902c4.736-23.682 117.444-587.224 120-600 2.802-14.022 15.116-24.116 29.416-24.116h724c14.3 0 26.614 10.094 29.416 24.116 4.276 21.374 117.072 585.352 120 600zM114.594 296h794.812l-12-60h-770.812zM244.85 536l9.298-92.984c1.548-15.472 14.59-27.018 29.816-27.018 0.998 0 2.006 0.050 3.022 0.152 16.486 1.648 28.514 16.35 26.866 32.836l-8.702 87.014h176.144v-90c0-16.958 13.748-30.706 30.706-30.706s30.706 13.748 30.706 30.706v90h175.434l-8.694-86.944c-1.688-16.874 10.624-31.922 27.498-33.608 1.040-0.104 2.070-0.154 3.092-0.154 15.584 0 28.932 11.818 30.516 27.652l9.308 93.054h177.546l-36-180h-818.812l-36 180zM849.406-4h-123.546l8.694 86.944c1.688 16.874-10.624 31.922-27.498 33.608-16.878 1.68-31.922-10.624-33.61-27.498l-9.306-93.054h-121.434v90c0 16.958-13.748 30.706-30.706 30.706s-30.706-13.748-30.706-30.706v-90h-122.144l-9.298 92.984c-1.65 16.486-16.348 28.516-32.836 26.866-16.486-1.648-28.514-16.35-26.866-32.836l8.7-87.014h-124.256l-36 180h746.812zM283.092 663.742c14.060-9.372 33.14-5.646 42.582 8.516 9.408 14.11 5.594 33.174-8.516 42.582-11.718 7.812-18.438 20.368-18.438 34.452 0 14.082 6.72 26.64 18.438 34.45 28.668 19.112 45.784 51.094 45.784 85.55s-17.116 66.436-45.784 85.548c-14.108 9.406-33.174 5.594-42.582-8.516s-5.594-33.174 8.516-42.582c11.716-7.812 18.438-20.368 18.438-34.45s-6.72-26.64-18.438-34.452c-28.668-19.112-45.784-51.094-45.784-85.548s17.116-66.438 45.784-85.55zM493.092 663.742c14.060-9.372 33.14-5.646 42.582 8.516 9.408 14.11 5.594 33.174-8.516 42.582-11.718 7.812-18.438 20.368-18.438 34.452 0 14.082 6.72 26.64 18.438 34.45 28.668 19.112 45.784 51.094 45.784 85.55s-17.116 66.436-45.784 85.548c-14.11 9.406-33.174 5.594-42.582-8.516s-5.594-33.174 8.516-42.582c11.716-7.812 18.438-20.368 18.438-34.45s-6.72-26.64-18.438-34.452c-28.668-19.112-45.784-51.094-45.784-85.548s17.116-66.438 45.784-85.55zM703.092 663.742c14.060-9.372 33.14-5.646 42.582 8.516 9.408 14.11 5.594 33.174-8.516 42.582-11.718 7.812-18.438 20.368-18.438 34.452 0 14.082 6.72 26.64 18.438 34.45 28.668 19.112 45.784 51.094 45.784 85.55s-17.116 66.436-45.784 85.548c-14.108 9.406-33.174 5.594-42.582-8.516s-5.594-33.174 8.516-42.582c11.716-7.812 18.438-20.368 18.438-34.45s-6.72-26.64-18.438-34.452c-28.668-19.112-45.784-51.094-45.784-85.548s17.116-66.438 45.784-85.55z" />
<glyph unicode="&#xe957;" glyph-name="ty-bathroom" d="M1024 330.115c0 53.987-43.922 97.909-97.909 97.909h-805.767v400.165c0 39.575 32.197 71.77 71.772 71.77h65.776c11.111 0 21.71-4.77 29.081-13.083l30.083-33.937c-1.8-8.745-2.748-17.8-2.748-27.070v-39.351c-11.643-4.122-19.998-15.199-19.998-28.254 0-16.567 13.431-29.997 29.997-29.997h248.17c16.567 0 29.997 13.431 29.997 29.997 0 13.055-8.355 24.132-19.998 28.254v39.351c0 73.936-60.149 134.084-134.084 134.084-41.398 0-78.467-18.866-103.083-48.446l-13.443 15.163c-18.75 21.154-45.712 33.283-73.977 33.283h-65.774c-72.656 0-131.766-59.109-131.766-131.764v-404.164c0-1.162 0.082-2.302 0.21-3.43-35.499-14.715-60.539-49.722-60.539-90.48 0-40.678 24.942-75.631 60.329-90.398v-54.215c0-107.373 87.354-194.727 194.727-194.727h17.144v-24.734c0-16.567 13.431-29.997 29.997-29.997s29.997 13.431 29.997 29.997v24.734h359.608v-24.734c0-16.567 13.431-29.997 29.997-29.997s29.997 13.431 29.997 29.997v24.734h17.144c107.373 0 194.727 87.354 194.727 194.727v54.215c35.389 14.767 60.331 49.722 60.331 90.398zM448.371 899.961c40.854 0 74.089-33.237 74.089-74.089v-37.607h-148.179v37.605c0 40.854 33.235 74.091 74.089 74.091zM768.944 50.77h-513.889c-74.291 0-134.732 60.441-134.732 134.732v46.704h783.353v-46.704c0-74.291-60.441-134.732-134.732-134.732zM926.091 292.201h-828.181c-20.906 0-37.915 17.009-37.915 37.915s17.009 37.915 37.915 37.915h828.181c20.906 0 37.915-17.009 37.915-37.915s-17.009-37.915-37.915-37.915zM593.672 523.634c-2.556 12.313-12.533 21.912-25 23.808-12.373 1.88-24.976-4.498-30.853-15.529-5.885-11.043-4.21-24.996 4.22-34.277 8.415-9.263 22.134-12.371 33.697-7.559 12.975 5.398 20.81 19.71 17.936 33.557zM473.682 523.634c-2.556 12.315-12.531 21.912-25 23.808-12.369 1.88-24.976-4.5-30.853-15.529-5.885-11.043-4.21-24.996 4.22-34.277 8.417-9.267 22.13-12.383 33.697-7.559 12.973 5.408 20.814 19.698 17.936 33.557zM353.693 523.634c-2.556 12.311-12.537 21.914-25 23.808-12.371 1.88-24.976-4.498-30.853-15.529-5.885-11.043-4.21-24.996 4.22-34.277 8.411-9.261 22.134-12.371 33.697-7.559 12.973 5.396 20.81 19.714 17.936 33.557zM594.112 640.724c-1.296 12.481-10.375 23.064-22.56 26.128-12.123 3.050-25.308-1.992-32.233-12.429-6.909-10.411-6.643-24.464 0.848-34.511 7.497-10.055 20.794-14.481 32.807-10.823 13.495 4.104 22.57 17.556 21.138 31.635zM474.122 640.724c-1.296 12.481-10.375 23.062-22.56 26.128-12.135 3.052-25.292-2.002-32.233-12.429-6.943-10.429-6.599-24.436 0.848-34.509 7.441-10.065 20.834-14.491 32.809-10.847 13.489 4.104 22.566 17.6 21.136 31.657zM354.133 640.724c-1.294 12.477-10.379 23.064-22.56 26.128-12.123 3.050-25.308-1.992-32.233-12.429-6.929-10.443-6.609-24.424 0.848-34.509 7.441-10.065 20.834-14.491 32.809-10.847 13.487 4.102 22.564 17.608 21.136 31.657z" />
<glyph unicode="&#xe958;" glyph-name="ty-bed" d="M904.55 636.405h-475.829c-21.64 0-41.658-7.042-57.916-18.932-24.712 40.342-69.198 67.32-119.876 67.32-29.474 0-56.842-9.144-79.456-24.714v59.26c0 47.276-38.462 85.738-85.738 85.738-47.272 0-85.734-38.462-85.734-85.738v-597.905c0-16.85 13.66-30.51 30.51-30.51h110.452c16.85 0 30.51 13.66 30.51 30.51v153.792h681.053v-153.792c0-16.85 13.66-30.51 30.51-30.51h110.452c16.85 0 30.51 13.66 30.51 30.51v395.519c0.004 65.868-53.584 119.452-119.448 119.452zM171.472 544.313c0 43.814 35.644 79.456 79.456 79.456 43.814 0 79.456-35.642 79.456-79.456v-90.81h-158.912v90.81zM913.55 151.946v153.792c0 16.85-13.66 30.51-30.51 30.51h-742.077c-16.85 0-30.51-13.66-30.51-30.51v-153.792h-49.43v567.393c0 13.628 11.088 24.716 24.714 24.716 13.628 0 24.716-11.088 24.716-24.716v-296.347c0-16.85 13.66-30.51 30.51-30.51h822.016v-240.538h-49.428zM962.98 453.505h-571.569v84.566c-0.002 20.574 16.736 37.312 37.31 37.312h475.829c32.218 0 58.43-26.21 58.43-58.43v-63.448z" />
<glyph unicode="&#xe959;" glyph-name="ty-beer" d="M722 598h-30v67.16c34.918 12.384 60 45.73 60 84.84 0 49.626-40.374 90-90 90h-35.14c-12.382 34.922-45.748 60-84.86 60-0.218 0-0.436 0-0.65-0.004-28.124 37.466-72.138 60.004-119.35 60.004-48.906 0-94.368-24.198-122.174-63.426-9.142 2.278-18.44 3.426-27.826 3.426-43.494 0-83.172-23.882-104.178-61.116-42.914-6.818-75.822-44.080-75.822-88.884 0-39.11 25.082-72.456 60-84.84v-639.16c0-49.626 40.374-90 90-90h360c49.626 0 90 40.374 90 90v30h30c115.794 0 210 94.206 210 210v122c0 115.794-94.206 210-210 210zM152 750c0 16.542 13.458 30 30 30h5.508c12.694 0 24.016 7.99 28.268 19.952 8.514 23.954 31.108 40.048 56.224 40.048 9.124 0 18.298-2.35 27.268-6.984 15.194-7.85 33.928-1.42 41.056 14.188 14.654 32.072 46.712 52.796 81.676 52.796 32.616 0 62.75-18.15 78.648-47.366 13.088-24.062 39.978-12.896 41.61-12.634 16.424-0.142 29.742-13.544 29.742-30 0-16.568 13.432-30 30-30h60c16.542 0 30-13.458 30-30s-13.458-30-30-30h-120c-49.716 0-90-42.192-90-92v-120c0-16.542-13.458-30-30-30s-30 13.458-30 30v120c0 49.718-40.184 92-90 92h-120c-16.542 0-30 13.458-30 30zM872 266c0-82.71-67.29-150-150-150h-60c-16.568 0-30-13.432-30-30v-60c0-16.542-13.458-30-30-30h-360c-16.542 0-30 13.458-30 30v634h90c15.982 0 30-14.954 30-32v-120c0-49.626 40.374-90 90-90s90 40.374 90 90v120c0 17.046 14.018 32 30 32h90v-92c0-16.568 13.432-30 30-30h60c82.71 0 150-67.29 150-150zM722 478h-60c-16.568 0-30-13.432-30-30v-242c0-16.568 13.432-30 30-30h60c49.626 0 90 40.374 90 90v122c0 49.626-40.374 90-90 90zM752 266c0-16.542-13.458-30-30-30h-30v182h30c16.542 0 30-13.458 30-30zM422 358c-16.568 0-30-13.432-30-30v-242c0-16.568 13.432-30 30-30s30 13.432 30 30v242c0 16.568-13.432 30-30 30zM302 358c-16.568 0-30-13.432-30-30v-242c0-16.568 13.432-30 30-30s30 13.432 30 30v242c0 16.568-13.432 30-30 30zM542 358c-16.568 0-30-13.432-30-30v-242c0-16.568 13.432-30 30-30s30 13.432 30 30v242c0 16.568-13.432 30-30 30z" />
<glyph unicode="&#xe95a;" glyph-name="ty-bell-ring" d="M932 178c16.57 0 30 13.43 30 30 0 236.258-181.961 378.055-420 389.273v60.727h90c16.57 0 30 13.43 30 30s-13.43 30-30 30h-240c-16.57 0-30-13.43-30-30s13.43-30 30-30h90v-60.727c-237.859-11.211-420-152.867-420-389.273 0-16.57 13.43-30 30-30h270v-62h-210c-49.625 0-90-40.375-90-90v-60c0-16.57 13.43-30 30-30h840c16.57 0 30 13.43 30 30v60c0 49.625-40.375 90-90 90h-210v62zM512 538c185.391 0 372.383-93.063 388.828-300h-777.656c16.445 206.938 203.438 300 388.828 300zM902 26v-30h-780v30c0 16.539 13.461 30 30 30h720c16.539 0 30-13.461 30-30zM602 116h-180v62h180zM542 868v62c0 16.57-13.43 30-30 30s-30-13.43-30-30v-62c0-16.57 13.43-30 30-30s30 13.43 30 30zM670.789 795.57l42.422 42.43c11.719 11.719 11.719 30.711 0 42.43-11.711 11.711-30.711 11.711-42.422 0l-42.43-42.43c-11.711-11.719-11.711-30.711 0-42.43 11.711-11.711 30.711-11.711 42.43 0zM395.641 795.57c11.711 11.719 11.711 30.711 0 42.43l-42.43 42.43c-11.711 11.711-30.711 11.711-42.422 0-11.719-11.719-11.719-30.711 0-42.43l42.422-42.43c11.719-11.711 30.711-11.711 42.43 0z" />
<glyph unicode="&#xe95b;" glyph-name="ty-biceps" d="M857.694 914.382c-15.836 28.138-46.040 45.618-78.828 45.618h-264.944c-49.626 0-90-40.374-90-90v-120c0-49.626 40.374-90 90-90h180c16.542 0 30-13.458 30-30v-235.666c-86.502 23.648-177.686 26.57-265.34 8.74-66.786 63.906-161.376 89.904-255.834 66.286-94.444-23.614-172.826-100.684-195.26-196.612-19.292-82.516-0.484-167.51 51.608-233.186 52.198-65.814 129.772-103.562 212.826-103.562 391.63 0 662.726 148.812 735.416 185.166 10.164 5.082 16.584 15.47 16.584 26.834v130.144c0 223.024-57.482 443.032-166.228 636.238zM963.922 166.486c-97.462-49.092-344.188-170.486-692-170.486-64.628 0-125.066 29.468-165.82 80.85-40.64 51.24-55.29 117.664-40.19 182.24 16.964 72.556 77.804 133.666 151.388 152.066 60.416 15.108 120.986 4.776 169.896-27.506-23.392-8.038-46.344-17.642-68.69-28.814-14.82-7.41-20.826-25.43-13.416-40.25 7.408-14.818 25.428-20.826 40.248-13.416 142.506 71.252 312.658 71.254 455.168 0 14.844-7.424 32.852-1.376 40.248 13.416 7.41 14.82 1.404 32.84-13.416 40.25-14.238 7.12-28.728 13.59-43.416 19.438v255.726c0 49.626-40.374 90-90 90h-30v90c0 16.568-13.432 30-30 30h-60c-16.568 0-30-13.432-30-30s13.432-30 30-30h30v-60h-90c-16.542 0-30 13.458-30 30v120c0 16.542 13.458 30 30 30h264.946c11.146 0 21.316-5.766 26.542-15.046 103.702-184.242 158.514-394.072 158.514-606.81v-111.658z" />
<glyph unicode="&#xe95c;" glyph-name="ty-bold" d="M964.651 657.455c0 166.825-135.72 302.545-302.545 302.545h-509.667c-51.411 0-93.091-41.68-93.091-93.091s41.68-93.091 93.091-93.091h39.557v-651.636h-39.557c-51.411 0-93.091-41.68-93.091-93.091s41.68-93.091 93.091-93.091h509.667c166.825 0 302.545 135.72 302.545 302.545 0 81.219-32.175 155.055-84.44 209.455 52.264 54.399 84.44 128.236 84.44 209.455zM662.106 541.091h-283.927v232.727h283.927c64.164 0 116.364-52.199 116.364-116.364s-52.199-116.364-116.364-116.364zM662.106 122.182h-283.927v232.727h283.927c64.164 0 116.364-52.199 116.364-116.364s-52.199-116.364-116.364-116.364z" />
<glyph unicode="&#xe95d;" glyph-name="ty-box" d="M1004.906 777.932c-0.106 0.042-0.21 0.092-0.318 0.134-0.036 0.014-0.070 0.032-0.106 0.044l-481.984 179.994c-6.77 2.528-14.222 2.528-20.992 0l-481.982-179.994c-0.038-0.014-0.074-0.032-0.112-0.046-0.1-0.038-0.196-0.084-0.296-0.124-10.018-3.908-17.358-12.998-18.818-23.976-0.030-0.232-0.054-0.462-0.080-0.696-0.116-1.060-0.194-2.126-0.196-3.21 0-0.018-0.004-0.036-0.004-0.054v-543.982c0-11.38 6.44-21.782 16.628-26.854l481.984-239.992c0.028-0.014 0.058-0.022 0.084-0.036 7.484-3.696 15.286-3.108 13.286-3.108 3.314 0 7.114 0.632 10.496 1.896l481.984 179.994c11.728 4.38 19.504 15.584 19.504 28.104v603.98c0.002 11.986-7.286 23.316-19.078 27.926zM743.522 811.518l-390.036-150.286-74.060 27.658 386.108 151.752 77.988-29.124zM302.078 616.386c-0.020-0.456-0.068-0.904-0.068-1.364v-116.464l-59.998 30v110.26l60.066-22.432zM512.004 897.978l69.424-25.928-385.588-151.548-79.812 29.602 395.976 147.874zM302.010 104.106l-59.998 29.876v83.504l59.998-30v-83.38zM482.004 14.484l-119.996 59.75v131.792c0 11.364-6.42 21.75-16.584 26.834l-119.996 59.998c-19.934 9.966-43.414-4.57-43.414-26.834v-102.168l-121.996 60.744v482.182l121.996-45.558v-151.208c0-11.364 6.42-21.75 16.584-26.834l119.996-59.998c19.898-9.948 43.414 4.536 43.414 26.834v143.99l119.996-44.812v-534.712zM512.024 602.044l-73.624 27.608 389.864 150.22 79.974-29.866-396.214-147.962zM963.988 166.846l-421.986-157.588v539.936l421.986 157.588v-539.936z" />
<glyph unicode="&#xe95e;" glyph-name="ty-bunk-bed" d="M994 928c-16.57 0-30-13.43-30-30v-162.797h-679.063v34.266c0 51.977-42.297 94.266-94.273 94.266h-96.398c-12.086 0-23.633-2.313-34.266-6.477v40.742c0 16.57-13.43 30-30 30s-30-13.43-30-30v-899.734c0-16.563 13.43-30 30-30s30 13.438 30 30v34.266h904v-34.266c0-16.563 13.43-30 30-30s30 13.438 30 30v899.734c0 16.57-13.43 30-30 30zM739.063 675.203v-100.672h-679.063v100.672zM60 287.469c0 18.891 15.375 34.266 34.266 34.266h96.398c18.898 0 34.273-15.375 34.273-34.266v-34.266h-164.938zM190.664 381.734h-96.398c-12.086 0-23.633-2.313-34.266-6.477v139.273h679.063v-261.328h-454.125v34.266c0 51.977-42.297 94.266-94.273 94.266zM799.063 514.531h164.938v-100.664h-164.938zM799.063 353.867h164.938v-100.664h-164.938zM964 574.531h-164.938v100.672h164.938zM94.266 803.734h96.398c18.898 0 34.273-15.375 34.273-34.266v-34.266h-164.938v34.266c0 18.891 15.375 34.266 34.266 34.266zM60 193.203h679.063v-100.672h-679.063zM799.063 92.531v100.672h164.938v-100.672z" />
<glyph unicode="&#xe95f;" glyph-name="ty-calendar" d="M288 462h-64c-16.568 0-30-13.432-30-30s13.432-30 30-30h64c16.568 0 30 13.432 30 30s-13.432 30-30 30zM288 334h-64c-16.568 0-30-13.432-30-30s13.432-30 30-30h64c16.568 0 30 13.432 30 30s-13.432 30-30 30zM288 206h-64c-16.568 0-30-13.432-30-30s13.432-30 30-30h64c16.568 0 30 13.432 30 30s-13.432 30-30 30zM544 462h-64c-16.568 0-30-13.432-30-30s13.432-30 30-30h64c16.568 0 30 13.432 30 30s-13.432 30-30 30zM544 334h-64c-16.568 0-30-13.432-30-30s13.432-30 30-30h64c16.568 0 30 13.432 30 30s-13.432 30-30 30zM544 206h-64c-16.568 0-30-13.432-30-30s13.432-30 30-30h64c16.568 0 30 13.432 30 30s-13.432 30-30 30zM800 462h-64c-16.568 0-30-13.432-30-30s13.432-30 30-30h64c16.568 0 30 13.432 30 30s-13.432 30-30 30zM800 334h-64c-16.568 0-30-13.432-30-30s13.432-30 30-30h64c16.568 0 30 13.432 30 30s-13.432 30-30 30zM800 206h-64c-16.568 0-30-13.432-30-30s13.432-30 30-30h64c16.568 0 30 13.432 30 30s-13.432 30-30 30zM934 830h-72v50c0 16.568-13.432 30-30 30s-30-13.432-30-30v-50h-260v50c0 16.568-13.432 30-30 30s-30-13.432-30-30v-50h-260v50c0 16.568-13.432 30-30 30s-30-13.432-30-30v-50h-72c-49.626 0-90-40.374-90-90v-664c0-49.626 40.374-90 90-90h844c49.626 0 90 40.374 90 90 0 19.364 0 647.15 0 664 0 49.626-40.374 90-90 90zM60 740c0 16.542 13.458 30 30 30h72v-50c0-16.568 13.432-30 30-30s30 13.432 30 30v50h260v-50c0-16.568 13.432-30 30-30s30 13.432 30 30v50h260v-50c0-16.568 13.432-30 30-30s30 13.432 30 30v50h72c16.542 0 30-13.458 30-30v-118h-904zM934 46h-844c-16.542 0-30 13.458-30 30v486h904v-486c0-16.542-13.458-30-30-30z" />
<glyph unicode="&#xe960;" glyph-name="ty-calendar-2" d="M904 768h-32v40c0 66.168-53.832 120-120 120s-120-53.832-120-120v-40h-240v40c0 66.168-53.832 120-120 120s-120-53.832-120-120v-40h-32c-66.168 0-120-53.832-120-120v-560c0-66.168 53.832-120 120-120h784c66.168 0 120 53.832 120 120 0 29.42 0 532.078 0 560 0 66.168-53.832 120-120 120zM712 808c0 22.056 17.944 40 40 40s40-17.944 40-40v-40h-80zM232 808c0 22.056 17.944 40 40 40s40-17.944 40-40v-40h-80zM944 88c0-22.056-17.944-40-40-40h-784c-22.056 0-40 17.944-40 40 0 29.42 0 532.078 0 560 0 22.056 17.944 40 40 40h32v-40c0-22.092 17.908-40 40-40s40 17.908 40 40v40h400v-40c0-22.092 17.908-40 40-40s40 17.908 40 40v40h192c22.056 0 40-17.944 40-40zM312 528h-80c-22.092 0-40-17.908-40-40s17.908-40 40-40h80c22.092 0 40 17.908 40 40s-17.908 40-40 40zM312 368h-80c-22.092 0-40-17.908-40-40s17.908-40 40-40h80c22.092 0 40 17.908 40 40s-17.908 40-40 40zM312 208h-80c-22.092 0-40-17.908-40-40s17.908-40 40-40h80c22.092 0 40 17.908 40 40s-17.908 40-40 40zM552 528h-80c-22.092 0-40-17.908-40-40s17.908-40 40-40h80c22.092 0 40 17.908 40 40s-17.908 40-40 40zM552 368h-80c-22.092 0-40-17.908-40-40s17.908-40 40-40h80c22.092 0 40 17.908 40 40s-17.908 40-40 40zM552 208h-80c-22.092 0-40-17.908-40-40s17.908-40 40-40h80c22.092 0 40 17.908 40 40s-17.908 40-40 40zM792 528h-80c-22.092 0-40-17.908-40-40s17.908-40 40-40h80c22.092 0 40 17.908 40 40s-17.908 40-40 40zM792 368h-80c-22.092 0-40-17.908-40-40s17.908-40 40-40h80c22.092 0 40 17.908 40 40s-17.908 40-40 40zM792 208h-80c-22.092 0-40-17.908-40-40s17.908-40 40-40h80c22.092 0 40 17.908 40 40s-17.908 40-40 40z" />
<glyph unicode="&#xe961;" glyph-name="ty-calendar-3" d="M899.596 897.77c-11.734 36.074-45.66 62.23-85.596 62.23-39.11 0-72.456-25.084-84.84-60h-132.32c-12.384 34.916-45.73 60-84.84 60s-72.456-25.084-84.84-60h-132.32c-12.384 34.916-45.73 60-84.84 60-39.936 0-73.862-26.156-85.596-62.23-70.552-12.186-124.404-73.788-124.404-147.77v-724c0-49.626 40.374-90 90-90h844c49.626 0 90 40.374 90 90v724c0 73.982-53.852 135.584-124.404 147.77zM784 870c0 16.542 13.458 30 30 30s30-13.458 30-30v-60c0-16.542-13.458-30-30-30s-30 13.458-30 30v60zM482 870c0 16.542 13.458 30 30 30s30-13.458 30-30v-60c0-16.542-13.458-30-30-30s-30 13.458-30 30v60zM180 870c0 16.542 13.458 30 30 30s30-13.458 30-30v-60c0-16.542-13.458-30-30-30s-30 13.458-30 30v60zM964 26c0-16.542-13.458-30-30-30h-844c-16.542 0-30 13.458-30 30v572h904v-572zM964 658h-904v92c0 39.11 25.082 72.456 60 84.84v-24.84c0-49.626 40.374-90 90-90s90 40.374 90 90v30h122v-30c0-49.626 40.374-90 90-90s90 40.374 90 90v30h122v-30c0-49.626 40.374-90 90-90s90 40.374 90 90v24.84c34.918-12.384 60-45.73 60-84.84v-92zM398.692 352.264l74.522 74.522c18.814 18.816 5.496 51.214-21.214 51.214h-180c-16.568 0-30-13.432-30-30s13.432-30 30-30h107.574l-68.786-68.788c-18.816-18.814-5.498-51.212 21.212-51.212h30c33.084 0 60-26.916 60-60s-26.916-60-60-60-60 26.916-60 60c0 16.568-13.432 30-30 30s-30-13.432-30-30c0-66.168 53.832-120 120-120s120 53.832 120 120c0 53.378-35.030 98.726-83.308 114.264zM812 178h-90v270c0 26.604-32.33 40.102-51.212 21.212l-120-120c-11.716-11.716-11.716-30.71 0-42.426 11.714-11.716 30.71-11.716 42.426 0l68.786 68.788v-197.574h-90c-16.568 0-30-13.432-30-30s13.432-30 30-30h240c16.568 0 30 13.432 30 30s-13.432 30-30 30z" />
<glyph unicode="&#xe962;" glyph-name="ty-call-center" d="M994 606.534h-99.702c-15.354 197.476-180.95 353.466-382.298 353.466s-366.944-155.99-382.298-353.466h-99.702c-16.568 0-30-13.432-30-30v-321.334c0-16.568 13.432-30 30-30h128.534c16.568 0 30 13.432 30 30v321.334c0 178.36 145.106 323.466 323.466 323.466s323.466-145.106 323.466-323.466v-321.334c0-107.486-87.448-194.934-194.934-194.934h-39.188c-12.562 37.31-47.854 64.266-89.344 64.266-51.978 0-94.268-42.288-94.268-94.266s42.29-94.266 94.268-94.266c41.49 0 76.782 26.956 89.344 64.266h39.188c130.42 0 238.264 98.45 253.16 224.934h100.308c16.568 0 30 13.432 30 30v321.334c0 16.568-13.432 30-30 30zM128.534 285.2h-68.534v261.334h68.534zM512-4c-18.894 0-34.268 15.372-34.268 34.266s15.374 34.266 34.268 34.266 34.268-15.372 34.268-34.266-15.374-34.266-34.268-34.266zM964 285.2h-68.534v261.334h68.534zM732.35 604.25c-11.206 4.644-24.11 2.080-32.692-6.5-0.002 0-93.666-93.634-138.074-138.010-19.946-20.054-31.384-47.758-31.384-76.006 0-16.568 13.432-30 30-30h130.668v-66.4c0-16.568 13.432-30 30-30s30 13.432 30 30v66.4h2.132c16.568 0 30 13.432 30 30s-13.432 30-30 30h-2.132v162.8c0 12.132-7.31 23.070-18.518 27.716zM690.868 413.734h-90.056c1.020 1.264 2.104 2.476 3.25 3.63 22.47 22.454 57.612 57.578 86.806 86.762zM477.732 287.334c0 16.568-13.432 30-30 30h-120.054c1.018 1.264 2.102 2.478 3.248 3.63 44.346 44.314 138.016 137.954 138.016 137.954 5.628 5.626 8.792 13.258 8.792 21.216v16.066c0 60.838-49.494 110.334-110.332 110.334-61.442 0-110.334-49.784-110.334-110.3v-0.032c0-16.568 13.432-29.984 30-29.984s30 13.448 30 30.016c0 27.5 22.142 50.3 50.334 50.3 27.754 0 50.332-22.58 50.332-50.334v-3.636c-24.326-24.318-93.128-93.094-129.284-129.226-19.946-20.054-31.382-47.758-31.382-76.004 0-16.568 13.432-30 30-30h160.666c16.566 0 29.998 13.43 29.998 30z" />
<glyph unicode="&#xe963;" glyph-name="ty-cctv" d="M958.012 556.274l-84.834 2.318 19.966 54.854c17.004 46.74-7.046 98.338-53.794 115.352l-620.18 225.726c-22.588 8.222-47.024 7.156-68.814-3.004-21.788-10.16-38.314-28.194-46.534-50.784l-61.562-169.138c-13.658-37.524-0.708-77.23 27.348-100.292l-12.008-32.99c-17.010-46.74 7.040-98.336 53.79-115.35l225.42-82.046v-132.93c0-16.542-13.458-30-30-30h-92.966c-5.744 28.744-19.708 55.318-40.724 76.822-28.478 29.132-66.23 45.174-106.302 45.174-16.568 0-30-13.432-30-30v-363.986c0-16.568 13.432-30 30-30 40.072 0 77.826 16.044 106.302 45.174 21.018 21.502 34.98 48.078 40.724 76.822h92.966c115.79 0 209.994 94.204 209.994 209.994v67.418l102.004-37.126c46.63-16.974 98.376 7.158 115.352 53.788l6.286 17.268 116.016-92.068c15.964-12.67 39.808-6.072 46.838 13.238l82.082 225.52c6.992 19.216-6.91 39.686-27.37 40.246zM156.812 87.996c0-39.178-25.438-73.58-59.998-86.528v293.054c34.56-12.948 59.998-47.348 59.998-86.528v-119.998zM456.802 267.99c0-82.708-67.288-149.996-149.996-149.996h-89.998v59.998h89.998c49.624 0 89.998 40.372 89.998 89.998v111.092l59.998-21.838v-89.254zM698.514 429.568c-0.016-0.044-0.030-0.088-0.048-0.132l-20.69-56.846c-5.66-15.546-22.914-23.586-38.452-17.93l-507.418 184.688c-15.578 5.67-23.602 22.868-17.928 38.448l10.26 28.19 405.778-147.692c15.81-5.754 32.906-7.018 49.618-3.434l132.236 11.406-13.356-36.698zM572.418 514.46c-5.324-0.458-11.648-3.51-21.882 0.216l-433.966 157.952c-15.574 5.668-23.604 22.87-17.93 38.45l61.562 169.14c2.74 7.53 8.248 13.542 15.512 16.928s15.408 3.742 22.94 1.002l620.178-225.726c15.578-5.67 23.602-22.868 17.928-38.45l-30.058-82.586c-3.218-8.846-10.338-15.6-19.252-18.378l-215.032-18.548zM861.15 350.14l-99.078 78.628 15.718 43.184c16.668 1.534 18.246 1.332 22.022 2.25 16.954 4.13 31.994 12.984 43.674 25.182l71.278-1.946-53.614-147.298zM347.268 780.204l-112.76 41.040c-15.56 5.664-32.784-2.36-38.45-17.93s2.362-32.784 17.932-38.45l112.76-41.040c15.598-5.678 32.794 2.394 38.45 17.93 5.666 15.568-2.362 32.784-17.932 38.45z" />
<glyph unicode="&#xe964;" glyph-name="ty-center-align" d="M46.545 773.818h930.909c25.706 0 46.545 20.84 46.545 46.545s-20.84 46.545-46.545 46.545h-930.909c-25.706 0-46.545-20.84-46.545-46.545s20.84-46.545 46.545-46.545zM170.667 680.727c-25.706 0-46.545-20.84-46.545-46.545s20.84-46.545 46.545-46.545h682.667c25.706 0 46.545 20.84 46.545 46.545s-20.84 46.545-46.545 46.545h-682.667zM977.455 494.545h-930.909c-25.706 0-46.545-20.84-46.545-46.545s20.84-46.545 46.545-46.545h930.909c25.706 0 46.545 20.84 46.545 46.545s-20.84 46.545-46.545 46.545zM977.455 122.182h-930.909c-25.706 0-46.545-20.84-46.545-46.545s20.84-46.545 46.545-46.545h930.909c25.706 0 46.545 20.84 46.545 46.545s-20.84 46.545-46.545 46.545zM853.333 215.273c25.706 0 46.545 20.84 46.545 46.545s-20.84 46.545-46.545 46.545h-682.667c-25.706 0-46.545-20.84-46.545-46.545s20.84-46.545 46.545-46.545h682.667z" />
<glyph unicode="&#xe965;" glyph-name="ty-city" d="M512 759.652c-92.060 0-166.956-74.896-166.956-166.956s74.896-166.958 166.956-166.958 166.956 74.896 166.956 166.956-74.896 166.958-166.956 166.958zM512 492.52c-55.236 0-100.174 44.938-100.174 100.174s44.938 100.174 100.174 100.174c55.236 0 100.174-44.938 100.174-100.174s-44.938-100.174-100.174-100.174zM512 960c-202.532 0-367.306-164.774-367.306-367.306 0-141.67 42.464-197.23 339.542-641.856 13.206-19.764 42.296-19.806 55.528 0 298.65 446.778 339.542 501.584 339.542 641.856-0.002 202.532-164.774 367.306-367.306 367.306zM512.002 29.478c-266.74 398.946-300.522 447.402-300.522 563.216-0.002 165.708 134.812 300.524 300.52 300.524s300.522-134.814 300.522-300.522c0-111.798-25.702-152.058-300.52-563.218z" />
<glyph unicode="&#xe966;" glyph-name="ty-city-2" d="M1023.968 212.774v416.976c0 16.625-13.492 30.117-30.117 30.117h-148.57v143.211c0 11.187-6.187 21.445-16.086 26.648l-240.773 126.766c-20.031 10.555-44.148-4-44.148-26.641v-174.312c-17.859 4.109-36.187 4.687-53.711 2.062v172.25c0 16.625-13.469 30.117-30.117 30.117h-268.359c-16.648 0-30.117-13.492-30.117-30.117v-269.984h-131.851c-16.625 0-30.117-13.492-30.117-30.117v-422.218c0-72.719 51.82-133.578 120.469-147.555v-63.742h-90.351c-16.633 0-30.117-13.484-30.117-30.117s13.484-30.117 30.117-30.117h963.734c16.633 0 30.117 13.484 30.117 30.117s-13.484 30.117-30.117 30.117h-90.351v63.742c64.875 13.211 120.469 69.258 120.469 152.797zM873.382 117.18c-49.789 0-90.344 40.539-90.344 90.351 0 40.422 68.078 148.523 90.344 182.406 22.469-34.109 90.351-142.18 90.351-182.406 0-49.906-40.656-90.351-90.351-90.351zM803.117 599.633h160.617v-241.054c-23.398 40.016-52.055 82.969-65.812 102.195-9.836 13.82-33.93 21.57-52.641-5.062-14.922-21.469-30.711-45.602-42.164-64.008zM604.507 879.961l180.539-95.047v-125.047h-12.047c-16.625 0-30.117-13.492-30.117-30.117v-307.008c-32.227 60.711-82.516 134.312-86.336 138.617v153.273c0 44.547-20.258 84.469-52.039 110.984zM421.632 59.977c36.727 7.469 68.625 28.375 90.351 57.328 21.727-28.953 53.625-49.859 90.351-57.328v-63.742h-180.703zM391.515 117.18c-49.578 0-90.344 40.32-90.344 90.351 0 40.305 68.031 148.516 90.344 182.406 22.336-33.719 90.351-142.031 90.351-182.406 0-49.891-40.609-90.351-90.351-90.351zM542.101 207.532c0 40.469 68.094 148.578 90.351 182.406 22.305-33.883 90.351-142.047 90.351-182.406 0-49.797-40.547-90.351-90.351-90.351-49.797 0-90.351 40.539-90.351 90.351zM511.984 698.961c46.406 0 84.328-37.789 84.328-84.328v-170.601c-28.484-41.789-62.047-95.601-84.328-140.867-22.766 46.281-55.461 98.25-84.328 140.867v170.601c0 46.57 37.93 84.328 84.328 84.328zM222.203 899.734h208.125v-165.883c-37.969-26.078-62.906-69.789-62.906-119.219v-153.273c-1.781-2.016-51.922-73.773-86.328-138.617v307.008c0 16.625-13.492 30.117-30.117 30.117h-28.773zM60.234 599.633h160.625v-207.93c-20.516 32.859-41.328 62.984-45.742 69.070-11.852 16.68-36.977 16.992-49.070 0-12.742-17.812-41.617-60.812-65.812-102.195zM60.234 207.532c0 40.367 68.219 148.805 90.351 182.406 22.117-33.648 90.351-141.984 90.351-182.406 0-49.961-40.703-90.351-90.351-90.351-49.797 0-90.351 40.539-90.351 90.351zM180.703 59.977c36.719 7.469 68.625 28.375 90.351 57.328 21.719-28.953 53.625-49.859 90.344-57.328v-63.742h-180.695zM662.57-3.765v63.742c36.719 7.469 68.625 28.375 90.351 57.328 21.719-28.953 53.625-49.859 90.351-57.328v-63.742zM492.57 575.141h38.828c16.516 0 30.117 13.375 30.117 30.109 0 16.742-13.602 30.117-30.117 30.117h-38.828c-16.602 0-30.117-13.453-30.117-30.117 0-16.687 13.57-30.109 30.117-30.109zM902.843 516.25c16.625 0 30.117 13.492 30.117 30.117s-13.492 30.117-30.117 30.117h-38.836c-16.695 0-30.117-13.594-30.117-30.117s13.422-30.117 30.117-30.117zM161.969 508.602c15.703 1.023 28.109 14.094 28.109 30.031 0 15.961-12.406 29.016-28.109 30.039-0.664 0.062-1.328 0.078-2.008 0.078h-38.828c-16.625 0-30.117-13.469-30.117-30.117 0-16.625 13.492-30.117 30.117-30.117h38.828c0.68 0 1.344 0.023 2.008 0.086zM306.851 810.391h38.828c16.625 0 30.117 13.492 30.117 30.117s-13.492 30.117-30.117 30.117h-38.828c-16.625 0-30.117-13.492-30.117-30.117s13.492-30.117 30.117-30.117zM682.304 713.008h38.828c16.625 0 30.117 13.5 30.117 30.117 0 16.625-13.492 30.117-30.117 30.117h-38.828c-16.625 0-30.117-13.492-30.117-30.117 0-16.617 13.492-30.117 30.117-30.117zM306.851 720.039h38.828c16.625 0 30.117 13.492 30.117 30.117s-13.492 30.117-30.117 30.117h-38.828c-16.625 0-30.117-13.492-30.117-30.117s13.492-30.117 30.117-30.117zM490.562 480.188c1.445-0.133-0.148-0.078 40.836-0.078 16.516 0 30.117 13.383 30.117 30.117s-13.602 30.117-30.117 30.117c-40.984 0-39.391 0.047-40.836-0.078-15.703-1.031-28.109-14.102-28.109-30.039 0-15.945 12.406-29.016 28.109-30.039z" />
<glyph unicode="&#xe967;" glyph-name="ty-city-3" d="M355.679 51.533c-71.548-48.942-106.066-88.998-107.498-90.678-12.436-14.577 9.983-34.464 22.818-19.493 0.328 0.384 33.691 38.931 101.624 85.401 16.013 10.954-0.928 35.722-16.944 24.77zM1003.977 161.566c-23.37 0-46.694-1.31-69.463-3.877-3.011 12.796-6.574 25.549-10.872 37.977 26.345 1.052 53.188 1.39 80.067 0.904 19.425-0.308 19.927 29.658 0.54 30.006-31.379 0.56-62.723 0.068-93.293-1.414-10.145 18.308-21.423 27.069-34.442 27.069-14.245 0-26.403-10.482-37.277-32.491-156.439-16.191-298.072-59.666-421.083-129.313-16.494-9.337-1.797-35.508 14.787-26.115 115.343 65.308 247.781 106.926 393.96 123.888-5.988-18.776-10.6-38.129-13.875-57.563-163.867-55.683-245.486-165.982-248.916-170.701-11.118-15.299 12.42-33.879 24.266-17.658 0.766 1.050 75.453 101.51 221.456 155.388 1.26-30.402 22.95-55.605 51.675-62.231v-48.326c0-19.401 30.010-19.401 30.010 0v48.326c44.637 10.297 55.273 53.17 48.89 92.713 20.853 2.257 42.186 3.407 63.569 3.407 19.399 0.002 19.399 30.012-0.002 30.012zM891.517 66.962v46.4c0 8.287-6.716 15.005-15.005 15.005s-15.005-6.718-15.005-15.005v-46.4c-12.792 5.752-21.735 18.592-21.735 33.503 0 11.862 4.96 41.832 12.972 69.569 3.573 12.374 7.058 22.023 10.251 29.48 0.086 0.19 0.17 0.378 0.248 0.572 5.884 13.603 10.744 19.729 13.268 21.677 3.925-3.029 13.479-16.111 23.768-51.729 8.013-27.737 12.972-57.709 12.972-69.569 0-14.911-8.945-27.749-21.735-33.503zM66.806 216.238c-20.505 0-36.692-21.697-50.939-68.281-9.897-32.363-15.811-67.863-15.811-83.486 0-31.647 22.143-58.2 51.745-65.030v-48.326c0-19.401 30.010-19.401 30.010 0v48.326c29.602 6.828 51.745 33.383 51.745 65.030 0 15.625-5.914 51.123-15.811 83.486-14.247 46.584-30.434 68.281-50.939 68.281zM81.811 30.968v46.4c0 19.401-30.010 19.401-30.010 0v-46.4c-12.792 5.752-21.735 18.592-21.735 33.503 0 11.862 4.96 41.832 12.972 69.569 10.289 35.618 19.843 48.7 23.768 51.729 3.925-3.029 13.479-16.111 23.768-51.729 8.013-27.737 12.972-57.709 12.972-69.569 0-14.911-8.943-27.751-21.735-33.503zM1009.395 303.233h-13.272v39.013c0 19.401-30.010 19.401-30.010 0v-39.013h-75.039v167.874c0 4.722-2.333 9.313-6.138 12.104l-88.196 64.604c-2.571 1.885-5.678 2.901-8.867 2.901h-71.846v109.453h250.086v-251.094c0-19.401 30.010-19.401 30.010 0v266.099c0 4.307-1.941 8.549-5.206 11.364l-140.049 120.775c-5.63 4.856-13.969 4.856-19.601 0l-115.261-99.399v91.507c0 47.172-36.43 89.22-82.768 96.428v49.601c0 19.401-30.010 19.401-30.010 0v-49.601c-46.332-7.206-82.768-49.261-82.768-96.428v-114.246l-123.902 94.806c-5.38 4.117-12.856 4.117-18.236 0l-43.549-33.321c-15.407-11.788 2.827-35.624 18.236-23.834l34.43 26.345 103.967-79.553h-207.932l16.926 12.95c15.407 11.79-2.825 35.62-18.236 23.834l-52.11-39.873c-3.665-2.801-5.886-7.304-5.886-11.918v-146.747l-72.912 75.009c-5.884 6.056-15.605 6.062-21.499 0.020l-99.045-101.512c-2.705-2.773-4.265-6.604-4.265-10.478v-167.668h-11.386c-19.401 0-19.401-30.010 0-30.010l164.187-0.852c-4.149-19.677-6.46-37.208-6.46-46.974 0-31.647 22.143-58.2 51.745-65.030v-48.326c0-19.401 30.010-19.401 30.010 0v48.326c29.6 6.83 51.743 33.383 51.743 65.030 0 9.765-2.311 27.297-6.46 46.974l709.568 0.852c19.401 0 19.401 30.010 0 30.010zM292.152 303.233c-0.546 1.891-1.104 3.775-1.677 5.65-10.588 34.624-22.249 55.489-35.958 63.925l-0.34 98.145v168.653h266.283v-41.406c0-0.898 0.094-1.773 0.244-2.627v-292.34zM620.805 550.717c-3.235 0-6.5-1.102-9.079-3.055l-61.010-46.322v153.273c0 0.56-0.036 1.112-0.096 1.657-0.016 0.142-0.044 0.278-0.064 0.418-0.026 0.184-0.052 0.37-0.084 0.552v127.175h135.526v-233.701h-65.192zM550.715 463.659l70.084 53.212 70.084-53.212v-160.426h-25.046v45.053c0 25.246-20.539 45.785-45.785 45.785s-45.787-20.539-45.787-45.785v-45.053h-23.55v160.426zM635.828 303.233h-31.553v45.053c0 8.699 7.076 15.775 15.777 15.775 8.699 0 15.775-7.076 15.775-15.775zM720.892 303.233v152.869h140.171v-152.869zM830.191 486.113h-119.252l-45.563 34.594h117.59zM841.069 776.134l99.673-85.955h-199.343zM618.234 866.999c31.927 0 58.728-22.362 65.564-52.246h-131.126c6.832 29.884 33.635 52.246 65.562 52.246zM140.475 550.909l63.187-65.002h-126.607zM56.457 455.897h167.71v-83.338c-13.541-8.591-25.080-29.382-35.568-63.675-0.572-1.875-1.13-3.759-1.677-5.65h-130.464v152.663zM254.544 191.894v46.4c0 8.287-6.716 15.005-15.005 15.005s-15.005-6.718-15.005-15.005v-46.4c-12.792 5.752-21.735 18.592-21.735 33.503 0 11.862 4.96 41.834 12.97 69.571 10.291 35.618 19.843 48.7 23.77 51.727 3.925-3.029 13.479-16.111 23.768-51.729 8.013-27.737 12.97-57.709 12.97-69.569 0-14.911-8.943-27.749-21.733-33.503zM387.44 598.657c-8.289 0-15.005-6.718-15.005-15.005v-77.37c0-8.287 6.716-15.005 15.005-15.005s15.005 6.718 15.005 15.005v77.37c0 8.287-6.716 15.005-15.005 15.005zM461.383 598.657c-8.289 0-15.005-6.718-15.005-15.005v-77.37c0-8.287 6.716-15.005 15.005-15.005s15.005 6.718 15.005 15.005v77.37c0 8.287-6.716 15.005-15.005 15.005zM387.44 450.685c-8.289 0-15.005-6.718-15.005-15.005v-77.37c0-8.287 6.716-15.005 15.005-15.005s15.005 6.718 15.005 15.005v77.37c0 8.287-6.716 15.005-15.005 15.005zM461.383 450.685c-8.289 0-15.005-6.718-15.005-15.005v-77.37c0-8.287 6.716-15.005 15.005-15.005s15.005 6.718 15.005 15.005v77.37c0 8.287-6.716 15.005-15.005 15.005zM313.495 598.657c-8.289 0-15.005-6.718-15.005-15.005v-77.37c0-8.287 6.716-15.005 15.005-15.005s15.005 6.718 15.005 15.005v77.37c0 8.287-6.716 15.005-15.005 15.005zM313.495 450.685c-8.289 0-15.005-6.718-15.005-15.005v-77.37c0-8.287 6.716-15.005 15.005-15.005s15.005 6.718 15.005 15.005v77.37c0 8.287-6.716 15.005-15.005 15.005zM620.052 434.033c19.31 0 19.342 30.010 0 30.010-19.31 0-19.342-30.010 0-30.010zM761.644 427.559c-8.289 0-15.005-6.718-15.005-15.005v-25.162c0-8.287 6.716-15.005 15.005-15.005s15.005 6.718 15.005 15.005v25.162c0 8.287-6.718 15.005-15.005 15.005zM820.144 427.559c-8.289 0-15.005-6.718-15.005-15.005v-25.162c0-8.287 6.716-15.005 15.005-15.005s15.005 6.718 15.005 15.005v25.162c0 8.287-6.718 15.005-15.005 15.005zM618.234 725.719c-20.239 0-36.706-16.466-36.706-36.706v-60.072c0-8.287 6.716-15.005 15.005-15.005h43.403c8.289 0 15.005 6.718 15.005 15.005v60.072c0.002 20.241-16.466 36.706-36.706 36.706zM624.932 643.946h-13.392v45.067c0 3.693 3.003 6.696 6.696 6.696s6.698-3.003 6.698-6.696v-45.067zM191.814 356.699v42.080c0 8.287-6.716 15.005-15.005 15.005s-15.005-6.718-15.005-15.005v-42.080c0-8.287 6.716-15.005 15.005-15.005s15.005 6.718 15.005 15.005zM104.177 413.785c-8.289 0-15.005-6.718-15.005-15.005v-42.080c0-8.287 6.716-15.005 15.005-15.005s15.005 6.718 15.005 15.005v42.080c0 8.287-6.716 15.005-15.005 15.005zM749.584 618.647v-33.501c0-8.287 6.716-15.005 15.005-15.005s15.005 6.718 15.005 15.005v33.501c0 8.287-6.716 15.005-15.005 15.005s-15.005-6.718-15.005-15.005zM901.521 618.647v-33.501c0-8.287 6.716-15.005 15.005-15.005s15.005 6.718 15.005 15.005v33.501c0 8.287-6.716 15.005-15.005 15.005s-15.005-6.718-15.005-15.005zM824.815 618.647v-33.501c0-8.287 6.716-15.005 15.005-15.005s15.005 6.718 15.005 15.005v33.501c0 8.287-6.716 15.005-15.005 15.005s-15.005-6.718-15.005-15.005z" />
<glyph unicode="&#xe968;" glyph-name="ty-city-4" d="M960 144h-24c0 1.6 0 4 0 5.6 0 44.8-36 80.8-80.8 80.8-2.4 0-4.8 0-7.2-0.8-4 10.4-8.8 19.2-14.4 28 63.2 8.8 111.2 62.4 111.2 128 0 138.4-45.6 406.4-128.8 406.4-40.8 0-72-64-94.4-145.6l-132 82.4c-4.8 3.2-11.2 3.2-16.8 0l-214.4-128.8-60 34.4c-4.8 3.2-11.2 3.2-16 0l-226.4-132.8c-8-4.8-10.4-14.4-5.6-21.6 4.8-8 14.4-10.4 21.6-5.6l48 28v-358.4h-56c-8.8 0-16-7.2-16-16s7.2-16 16-16h896c8.8 0 16 7.2 16 16s-7.2 16-16 16zM856 198.4c26.4 0 48.8-21.6 48.8-48.8v-5.6h-249.6c12 21.6 18.4 45.6 18.4 70.4 0 16-2.4 31.2-7.2 45.6 17.6 14.4 38.4 21.6 60.8 21.6 40.8 0 76-24.8 90.4-61.6-6.4-4-12.8-8-18.4-13.6-6.4-6.4-6.4-16 0-22.4 3.2-3.2 7.2-4.8 11.2-4.8s8 1.6 11.2 4.8c13.6 12 29.6 14.4 34.4 14.4zM816 760c11.2 0 38.4-26.4 64.8-128 20-76.8 32.8-173.6 32.8-247.2 0-48-35.2-88-80.8-96v128.8l59.2 59.2c6.4 6.4 6.4 16 0 22.4s-16 6.4-22.4 0l-36.8-36.8v105.6c0 8.8-7.2 16-16 16s-16-7.2-16-16v-160.8l-36.8 36.8c-6.4 6.4-16 6.4-22.4 0s-6.4-16 0-22.4l59.2-59.2v-69.6c-13.6 9.6-29.6 16.8-47.2 20-20.8 17.6-34.4 44-34.4 73.6 0 73.6 12.8 170.4 32.8 247.2 25.6 100 53.6 126.4 64 126.4zM581.6 696.8l132.8-82.4c-17.6-78.4-27.2-166.4-27.2-228.8 0-27.2 8.8-52 22.4-72-20.8-3.2-40.8-10.4-57.6-23.2-25.6 41.6-71.2 69.6-124 69.6-26.4 0-50.4-7.2-72-19.2v165.6l48-28v-22.4c0-8.8 7.2-16 16-16h128c8.8 0 16 7.2 16 16v128c0 8.8-7.2 16-16 16h-128c-8.8 0-16-7.2-16-16v-68l-48 28v77.6zM632 568v-32h-32v32zM536 472v32h32v-32zM600 504h32v-32h-32zM568 536h-32v32h32zM424 602.4v-40l-34.4 20zM152 521.6l138.4 80.8 133.6-77.6v-208.8c-12-12-21.6-26.4-28.8-43.2-1.6 0-8 0.8-10.4 0.8-62.4 0-112.8-50.4-112.8-112.8 0-5.6 0.8-11.2 1.6-16h-121.6zM306.4 144c-1.6 5.6-2.4 11.2-2.4 16 0 44.8 36 80.8 80.8 80.8 22.4 0 44-9.6 59.2-26.4 5.6-6.4 16-7.2 22.4-0.8 6.4 5.6 7.2 16 0.8 22.4-11.2 12.8-25.6 21.6-40.8 28 19.2 38.4 57.6 63.2 101.6 63.2 62.4 0 112.8-50.4 112.8-112.8 0-25.6-8.8-50.4-24.8-70.4h-251.2zM352 328c8.8 0 16 7.2 16 16v128c0 8.8-7.2 16-16 16h-128c-8.8 0-16-7.2-16-16v-128c0-8.8 7.2-16 16-16zM304 360v32h32v-32zM336 424h-32v32h32zM272 456v-32h-32v32zM240 392h32v-32h-32z" />
<glyph unicode="&#xe969;" glyph-name="ty-city-5" d="M1014.518 657.914l-241 225.946c-11.54 10.818-29.496 10.818-41.036 0l-99.982-93.738-99.982 93.738c-11.54 10.818-29.496 10.82-41.036 0l-99.982-93.736-99.982 93.736c-11.54 10.818-29.498 10.818-41.036 0l-241-225.946c-6.050-5.672-9.482-13.594-9.482-21.886v-602c0-16.568 13.432-30 30-30h964c16.568 0 30 13.432 30 30v602c0 8.292-3.432 16.214-9.482 21.886zM60 623.032l211 197.82 76.638-71.85-97.156-91.086c-6.048-5.672-9.482-13.594-9.482-21.886v-92h-90c-16.568 0-30-13.432-30-30v-120c0-16.568 13.432-30 30-30h90v-60h-90c-16.568 0-30-13.432-30-30v-120c0-16.568 13.432-30 30-30h90v-60h-181zM241 424.028h-60v60h60zM241 184.028h-60v60h60zM301 623.030l211 197.82 211-197.82v-559.002h-121v120h11c16.568 0 30 13.432 30 30s-13.432 30-30 30h-202c-16.568 0-30-13.432-30-30s13.432-30 30-30h11v-120h-121zM783 244.028h60v-60h-60zM783 484.028h60v-60h-60zM542 184.028v-120h-60v120zM964 64.028h-181v60h90c16.568 0 30 13.432 30 30v120c0 16.568-13.432 30-30 30h-90v60h90c16.568 0 30 13.432 30 30v120c0 16.568-13.432 30-30 30h-90v92c0 8.292-3.432 16.214-9.482 21.886l-97.156 91.086 76.638 71.85 211-197.82zM411 364.028h202c16.568 0 30 13.432 30 30s-13.432 30-30 30h-11v90c0 16.568-13.432 30-30 30h-120c-16.568 0-30-13.432-30-30v-90h-11c-16.568 0-30-13.432-30-30s13.432-30 30-30zM482 484.028h60v-60h-60z" />
</font>
</defs>
</svg>
